[ create a new paste ] login | about

Link: http://codepad.org/tqKb3Ta8    [ raw code | fork ]

Plain Text, pasted on Dec 9:
foobar2000 1.6 / Dynamic Range Meter 1.1.1
log date: 2020-12-09 02:36:43

--------------------------------------------------------------------------------
Analyzed: Henry Mancini / Brass, Ivory And Strings & Brass On Ivory
--------------------------------------------------------------------------------

DR         Peak         RMS     Duration Track
--------------------------------------------------------------------------------
DR13      -0.01 dB   -18.81 dB      3:21 01-Theme for Doc  
DR11      -0.02 dB   -18.84 dB      3:03 02-Ben 
DR11      -0.61 dB   -20.36 dB      4:11 03-Help Me Make it Through the Night  
DR12      -2.43 dB   -20.84 dB      3:02 04-Round Midnight 
DR12      -0.91 dB   -19.10 dB      3:24 05-Without You  
DR14      -1.79 dB   -21.15 dB      3:37 06-Make it With You  
DR12      -3.39 dB   -20.97 dB      3:46 07-Lover Man 
DR11      -0.08 dB   -18.82 dB      3:12 08-Wave 
DR11      -0.73 dB   -20.26 dB      3:04 09-Love Theme for Laura  
DR13      -3.19 dB   -21.50 dB      3:35 10-I Cant Get Started  
DR11      -2.36 dB   -19.08 dB      2:50 11-Brass on Ivory  
DR11      -3.87 dB   -22.65 dB      2:25 12-Dreamsville 
DR12      -5.13 dB   -20.97 dB      3:33 13-Brians Song The Hands of Time  
DR12      -3.66 dB   -19.98 dB      3:17 14-If  
DR12      -3.97 dB   -20.50 dB      3:14 15-Willow Weep for Me  
DR11      -2.56 dB   -19.75 dB      2:51 16-Sometimes 
DR12      -4.75 dB   -21.08 dB      3:10 17-Poor Butterfly  
DR12      -5.26 dB   -21.60 dB      3:19 18-Misty 
DR11      -5.44 dB   -21.44 dB      2:35 19-Never My Love  
DR12      -3.45 dB   -21.11 dB      3:08 20-Weve Only Just Begun  
DR11      -2.63 dB   -21.41 dB      3:17 21-Soldier in the Rain  
--------------------------------------------------------------------------------

Number of tracks:  21
Official DR value: DR12

Samplerate:        88200 Hz
Channels:          6
Bits per sample:   24
Bitrate:           5940 kbps
Codec:             FLAC
================================================================================




Create a new paste based on this one


Comments: