[ create a new paste ] login | about

Link: http://codepad.org/trhUL4fl    [ raw code | fork ]

Plain Text, pasted on Aug 10:
foobar2000 1.4.4 / Dynamic Range Meter 1.1.1
log date: 2019-08-10 11:14:46

--------------------------------------------------------------------------------
Analyzed: Arnie Somogyi's Ambulance / Accident and Insurgency
--------------------------------------------------------------------------------

DR         Peak         RMS     Duration Track
--------------------------------------------------------------------------------
DR11      -0.85 dB   -17.30 dB      7:02 01-Walking Wounded
DR13      -3.86 dB   -25.26 dB      2:15 02-Mick the Fish
DR13      -1.04 dB   -19.61 dB      8:48 03-Captain Courageous
DR10      -2.93 dB   -19.73 dB      7:06 04-Tumbledown
DR11      -1.30 dB   -20.47 dB      1:09 05-Lobster Pot 999
DR10      -1.17 dB   -16.43 dB      3:54 06-Don't Improvise
DR11      -1.30 dB   -18.00 dB      7:31 07-Solace
DR13      -8.94 dB   -29.66 dB      0:45 08-Serenity
DR11      -3.32 dB   -20.40 dB      6:26 09-Adrift
DR11      -1.07 dB   -17.71 dB      1:04 10-Sirenity (aka deaf on arrival)
DR12      -0.52 dB   -18.27 dB      9:24 11-Broadside
--------------------------------------------------------------------------------

Number of tracks:  11
Official DR value: DR11

Samplerate:        88200 Hz
Channels:          6
Bits per sample:   24
Bitrate:           7189 kbps
Codec:             FLAC
================================================================================




Create a new paste based on this one


Comments: