[ create a new paste ] login | about

Link: http://codepad.org/tsFng3Lp    [ raw code | fork ]

Plain Text, pasted on Aug 21:
foobar2000 1.3.17 / Dynamic Range Meter 1.1.1
log date: 2018-08-21 09:52:46

--------------------------------------------------------------------------------
Analyzed: R.E.M. / Lifes Rich Pageant (Remaster)
--------------------------------------------------------------------------------

DR         Peak         RMS     Duration Track
--------------------------------------------------------------------------------
DR7       -0.69 dB    -9.22 dB      3:28 01-Begin The Begin
DR7       -0.79 dB    -8.93 dB      3:25 02-These Days
DR7       -1.06 dB   -10.09 dB      2:51 03-Fall On Me
DR7       -0.74 dB    -9.89 dB      4:21 04-Cuyahoga
DR7       -1.06 dB    -9.74 dB      2:51 05-Hyena (Album Version)
DR8       -1.24 dB   -10.70 dB      1:28 06-Underneath The Bunker
DR7       -1.22 dB   -11.52 dB      3:57 07-The Flowers Of Guatemala
DR7       -0.79 dB    -9.50 dB      3:50 08-I Believe
DR7       -0.90 dB    -9.61 dB      3:35 09-What If We Give It Away?
DR7       -0.22 dB    -8.98 dB      3:00 10-Just A Touch
DR9       -1.77 dB   -12.14 dB      2:50 11-Swan Swan H
DR7       -0.81 dB    -9.39 dB      2:54 12-Superman
--------------------------------------------------------------------------------

Number of tracks:  12
Official DR value: DR7

Samplerate:        192000 Hz
Channels:          2
Bits per sample:   24
Bitrate:           5960 kbps
Codec:             FLAC
================================================================================




Create a new paste based on this one


Comments: