[ create a new paste ] login | about

Link: http://codepad.org/tsJCgYQo    [ raw code | fork ]

Plain Text, pasted on Nov 29:
foobar2000 1.3.17 / Dynamic Range Meter 1.1.1
log date: 2018-11-29 12:46:25

--------------------------------------------------------------------------------
Analyzed: The Moody Blues / Days Of Future Passed Live
--------------------------------------------------------------------------------

DR         Peak         RMS     Duration Track
--------------------------------------------------------------------------------
DR8       -0.14 dB    -9.63 dB      7:19 01-I'm Just a Singer (In a Rock and Roll Band)
DR9       -0.82 dB   -11.01 dB      4:11 02-The Voice
DR9       -0.24 dB   -11.26 dB      5:55 03-Steppin' In A Slide Zone
DR9       -0.59 dB   -10.76 dB      5:05 04-Say It With Love
DR9       -0.60 dB   -11.42 dB      5:19 05-Nervous
DR8       -0.61 dB   -10.32 dB      5:20 06-Your Wildest Dreams
DR10      -0.28 dB   -13.07 dB      8:15 07-Isn't Life Strange
DR8       -0.50 dB   -10.61 dB      5:29 08-I Know You're Out There Somewhere
DR8       -0.52 dB   -10.00 dB      3:56 09-The Story In Your Eyes
--------------------------------------------------------------------------------

Number of tracks:  9
Official DR value: DR9

Samplerate:        44100 Hz
Channels:          2
Bits per sample:   16
Bitrate:           1087 kbps
Codec:             FLAC
================================================================================

foobar2000 1.3.17 / Dynamic Range Meter 1.1.1
log date: 2018-11-29 12:46:40

--------------------------------------------------------------------------------
Analyzed: The Moody Blues / Days Of Future Passed Live
--------------------------------------------------------------------------------

DR         Peak         RMS     Duration Track
--------------------------------------------------------------------------------
DR11      -1.04 dB   -16.07 dB      4:27 10-The Day Begins
DR11      -0.72 dB   -16.96 dB      1:59 11-Morning Glory
DR10      -5.46 dB   -20.77 dB      0:45 12-Dawn (Prelude)
DR8       -0.94 dB   -11.17 dB      3:27 13-Dawn Is A Feeling
DR11      -3.15 dB   -18.34 dB      0:24 14-The Morning (Prelude)
DR8       -0.91 dB   -11.21 dB      4:11 15-Another Morning
DR11      -1.09 dB   -15.80 dB      1:55 16-Lunch Break (Prelude)
DR9       -0.15 dB   -10.95 dB      3:54 17-Peak Hour
DR9       -0.65 dB   -12.16 dB      5:43 18-Tuesday Afternoon (Forever Afternoon)
DR10      -0.97 dB   -12.79 dB      3:52 19-Evening (Time To Get Away)
DR11      -1.22 dB   -15.58 dB      0:41 20-The Sun Set (Prelude)
DR9       -0.99 dB   -12.35 dB      3:02 21-The Sun Set
DR9       -2.63 dB   -14.52 dB      0:23 22-Twilight (Prelude)
DR8       -0.53 dB   -10.36 dB      3:26 23-Twilight Time
DR13      -2.52 dB   -18.35 dB      1:08 24-Late Lament
DR7       -0.28 dB    -9.75 dB      6:35 25-Nights In White Satin
DR9       -0.57 dB   -12.61 dB      3:56 26-The Night (Finale)
DR9       -0.43 dB   -11.08 dB      6:38 27-Question
DR8       -0.63 dB    -9.58 dB      4:47 28-Ride My See-Saw
--------------------------------------------------------------------------------

Number of tracks:  19
Official DR value: DR10

Samplerate:        44100 Hz
Channels:          2
Bits per sample:   16
Bitrate:           1091 kbps
Codec:             FLAC
================================================================================




Create a new paste based on this one


Comments: