[ create a new paste ] login | about

Link: http://codepad.org/tte0qct4    [ raw code | fork ]

Plain Text, pasted on Jun 24:
foobar2000 1.3.15 / Dynamic Range Meter 1.1.1
log date: 2017-06-24 02:19:46

--------------------------------------------------------------------------------
Analyzed: Ry Cooder / Boomer's Story
--------------------------------------------------------------------------------

DR         Peak         RMS     Duration Track
--------------------------------------------------------------------------------
DR10      -6.49 dB   -19.30 dB      4:13 01-Boomer's Story
DR12      -6.45 dB   -22.23 dB      4:11 02-Cherry Ball Blues
DR10      -7.01 dB   -19.33 dB      2:17 03-Crow Black Chicken
DR11      -6.51 dB   -20.04 dB      4:25 04-Ax Sweet Mama
DR16      -6.32 dB   -26.05 dB      4:29 05-Maria Elena
DR12      -7.12 dB   -22.56 dB      3:24 06-Dark End of the Street
DR14      -6.70 dB   -25.00 dB      3:36 07-Rally 'Round the Flag
DR10      -6.40 dB   -21.11 dB      3:00 08-Comin' in on a Wing and a Prayer 
DR13      -6.70 dB   -23.17 dB      4:38 09-President Kennedy
DR11      -6.74 dB   -21.81 dB      4:33 10-Good Morning Mr. Railroad Man
--------------------------------------------------------------------------------

Number of tracks:  10
Official DR value: DR12

Samplerate:        2822400 Hz / PCM Samplerate: 88200 Hz
Channels:          2
Bits per sample:   1
Bitrate:           5645 kbps
Codec:             DSD64
================================================================================




Create a new paste based on this one


Comments: