[ create a new paste ] login | about

Link: http://codepad.org/turkEsTD    [ raw code | fork ]

Plain Text, pasted on Apr 12:
Exact Audio Copy V0.99 prebeta 4 from 23. January 2008

Отчёт EAC об извлечении, выполненном 4. марта 2009, 18:44

Brenda Lee / Little Miss Dynamite CD 2

Дисковод: Optiarc DVD RW AD-7203A   Adapter: 3  ID: 0

Режим чтения                 : Достоверность
Использование точного потока : Да
Отключение кэша аудио        : Да
Использование указателей C2  : Нет

Коррекция смещения при чтении                     : 48
Способность читать области Lead-in и Lead-out     : Нет
Заполнение пропущенных сэмплов тишиной            : Да
Удаление блоков с тишиной в начале и конце        : Нет
При вычислениях CRC использовались нулевые сэмплы : Да
Интерфейс                                         : Установленный внешний ASPI-интерфейс

Выходной формат : Внутренние WAV-операции
Формат сэмплов  : 44.100 Гц; 16 бит; стерео


TOC извлечённого CD

     Трек |   Старт  | Длительность | Начальный сектор | Конечный сектор 
    ---------------------------------------------------------------------
       1  |  0:00.00 |    1:58.45   |           0      |       8894      
       2  |  1:58.45 |    2:12.40   |        8895      |      18834      
       3  |  4:11.10 |    2:28.40   |       18835      |      29974      
       4  |  6:39.50 |    2:23.27   |       29975      |      40726      
       5  |  9:03.02 |    2:50.48   |       40727      |      53524      
       6  | 11:53.50 |    2:20.65   |       53525      |      64089      
       7  | 14:14.40 |    2:23.10   |       64090      |      74824      
       8  | 16:37.50 |    2:51.05   |       74825      |      87654      
       9  | 19:28.55 |    3:02.40   |       87655      |     101344      
      10  | 22:31.20 |    2:29.62   |      101345      |     112581      
      11  | 25:01.07 |    2:53.20   |      112582      |     125576      
      12  | 27:54.27 |    2:26.40   |      125577      |     136566      
      13  | 30:20.67 |    2:28.48   |      136567      |     147714      
      14  | 32:49.40 |    2:39.45   |      147715      |     159684      
      15  | 35:29.10 |    2:42.30   |      159685      |     171864      
      16  | 38:11.40 |    1:59.17   |      171865      |     180806      
      17  | 40:10.57 |    2:08.25   |      180807      |     190431      
      18  | 42:19.07 |    2:08.73   |      190432      |     200104      
      19  | 44:28.05 |    2:46.47   |      200105      |     212601      
      20  | 47:14.52 |    2:07.63   |      212602      |     222189      
      21  | 49:22.40 |    2:50.55   |      222190      |     234994      
      22  | 52:13.20 |    3:06.17   |      234995      |     248961      
      23  | 55:19.37 |    2:46.40   |      248962      |     261451      
      24  | 58:06.02 |    2:43.03   |      261452      |     273679      
      25  | 60:49.05 |    2:16.37   |      273680      |     283916      
      26  | 63:05.42 |    2:22.25   |      283917      |     294591      
      27  | 65:27.67 |    2:42.43   |      294592      |     306784      
      28  | 68:10.35 |    2:58.30   |      306785      |     320164      
      29  | 71:08.65 |    3:31.22   |      320165      |     336011      
      30  | 74:40.12 |    2:59.65   |      336012      |     349501      


Характеристики диапазона извлечения и сообщения об ошибках

Выбранный диапазон

     Имя файла D:\Раздачи\Brenda Lee\CD 2\Brenda Lee - Little Miss Dynamite CD 2.wav

     Пиковый уровень 98.0 %
     Качество диапазона 100.0 %
     CRC копии 5BA1207B
     Копирование... OK

Ошибок не произошло

 
AccurateRip: сводка
 
Трек  1  нет в базе данных
Трек  2  нет в базе данных
Трек  3  нет в базе данных
Трек  4  нет в базе данных
Трек  5  нет в базе данных
Трек  6  нет в базе данных
Трек  7  нет в базе данных
Трек  8  нет в базе данных
Трек  9  нет в базе данных
Трек 10  нет в базе данных
Трек 11  нет в базе данных
Трек 12  нет в базе данных
Трек 13  нет в базе данных
Трек 14  нет в базе данных
Трек 15  нет в базе данных
Трек 16  нет в базе данных
Трек 17  нет в базе данных
Трек 18  нет в базе данных
Трек 19  нет в базе данных
Трек 20  нет в базе данных
Трек 21  нет в базе данных
Трек 22  нет в базе данных
Трек 23  нет в базе данных
Трек 24  нет в базе данных
Трек 25  нет в базе данных
Трек 26  нет в базе данных
Трек 27  нет в базе данных
Трек 28  нет в базе данных
Трек 29  нет в базе данных
Трек 30  нет в базе данных
 
Ни одного трека нет в базе AccurateRip

Конец отчёта



Create a new paste based on this one


Comments: