[ create a new paste ] login | about

Link: http://codepad.org/tvCrq0aA    [ raw code | fork ]

Plain Text, pasted on Jun 8:
Exact Audio Copy V0.99 prebeta 4 from 23. January 2008

EAC extraction logfile from 6. October 2009, 21:37

Cat Stevens / Gold  - 1

Used drive  : TSSTcorpCDDVDW SH-S202J   Adapter: 1  ID: 1

Read mode               : Secure
Utilize accurate stream : Yes
Defeat audio cache      : Yes
Make use of C2 pointers : No

Read offset correction                      : 6
Overread into Lead-In and Lead-Out          : No
Fill up missing offset samples with silence : Yes
Delete leading and trailing silent blocks   : No
Null samples used in CRC calculations       : Yes
Used interface                              : Native Win32 interface for Win NT & 2000

Used output format : Internal WAV Routines
Sample format      : 44.100 Hz; 16 Bit; Stereo


TOC of the extracted CD

     Track |   Start  |  Length  | Start sector | End sector 
    ---------------------------------------------------------
        1  |  0:00.00 |  2:45.42 |         0    |    12416   
        2  |  2:45.42 |  2:55.27 |     12417    |    25568   
        3  |  5:40.69 |  3:02.01 |     25569    |    39219   
        4  |  8:42.70 |  3:43.10 |     39220    |    55954   
        5  | 12:26.05 |  2:46.55 |     55955    |    68459   
        6  | 15:12.60 |  3:52.62 |     68460    |    85921   
        7  | 19:05.47 |  3:48.65 |     85922    |   103086   
        8  | 22:54.37 |  3:20.32 |    103087    |   118118   
        9  | 26:14.69 |  3:42.51 |    118119    |   134819   
       10  | 29:57.45 |  3:41.25 |    134820    |   151419   
       11  | 33:38.70 |  2:51.63 |    151420    |   164307   
       12  | 36:30.58 |  2:45.47 |    164308    |   176729   
       13  | 39:16.30 |  1:42.11 |    176730    |   184390   
       14  | 40:58.41 |  2:50.27 |    184391    |   197167   
       15  | 43:48.68 |  3:19.20 |    197168    |   212112   
       16  | 47:08.13 |  3:11.65 |    212113    |   226502   
       17  | 50:20.03 |  4:10.69 |    226503    |   245321   


Range status and errors

Selected range

     Filename E:\РОЗДАЧА\Cat Stevens - Gold  - 1.wav

     Peak level 100.0 %
     Range quality 100.0 %
     Test CRC B3544719
     Copy CRC B3544719
     Copy OK

No errors occurred

End of status report



Create a new paste based on this one


Comments: