[ create a new paste ] login | about

Link: http://codepad.org/tyMG2LmV    [ raw code | fork ]

Plain Text, pasted on Apr 26:
Exact Audio Copy V1.1 from 23. June 2015

EAC extraction logfile from 12. March 2016, 13:47

Joe Walsh / Joe Walsh's Greatest Hits Little Did He Know...

Used drive  : TSSTcorpCDDVDW TS-H653B   Adapter: 1  ID: 0

Read mode               : Secure
Utilize accurate stream : Yes
Defeat audio cache      : Yes
Make use of C2 pointers : No

Read offset correction                      : 6
Overread into Lead-In and Lead-Out          : No
Fill up missing offset samples with silence : Yes
Delete leading and trailing silent blocks   : No
Null samples used in CRC calculations       : Yes
Used interface                              : Native Win32 interface for Win NT & 2000

Used output format              : User Defined Encoder
Selected bitrate                : 896 kBit/s
Quality                         : High
Add ID3 tag                     : No
Command line compressor         : C:\Program Files (x86)\Exact Audio Copy\wavpack-4.70.0\wavpack.exe
Additional command line options : -hm %source% %dest%


TOC of the extracted CD

     Track |   Start  |  Length  | Start sector | End sector 
    ---------------------------------------------------------
        1  |  0:00.00 |  3:55.37 |         0    |    17661   
        2  |  3:55.37 |  5:32.08 |     17662    |    42569   
        3  |  9:27.45 |  7:02.40 |     42570    |    74259   
        4  | 16:30.10 |  3:34.10 |     74260    |    90319   
        5  | 20:04.20 |  3:28.65 |     90320    |   105984   
        6  | 23:33.10 |  5:57.15 |    105985    |   132774   
        7  | 29:30.25 |  5:16.30 |    132775    |   156504   
        8  | 34:46.55 |  4:36.67 |    156505    |   177271   
        9  | 39:23.47 |  5:15.35 |    177272    |   200931   
       10  | 44:39.07 |  3:37.35 |    200932    |   217241   
       11  | 48:16.42 |  8:04.10 |    217242    |   253551   
       12  | 56:20.52 |  3:32.20 |    253552    |   269471   
       13  | 59:52.72 |  7:02.13 |    269472    |   301134   
       14  | 66:55.10 |  3:30.00 |    301135    |   316884   
       15  | 70:25.10 |  5:11.45 |    316885    |   340254   


Range status and errors

Selected range

     Filename G:\MUSIC\NL[ZAM]\JWGH_LDHK\Joe Walsh - Joe Walsh's Greatest Hits Little Did He Know....wav

     Peak level 99.8 %
     Extraction speed 2.3 X
     Range quality 100.0 %
     Test CRC 91E124D3
     Copy CRC 91E124D3
     Copy OK

No errors occurred

 
AccurateRip summary
 
Track  1  accurately ripped (confidence 11)  [BCC41F2D]  (AR v2)
Track  2  accurately ripped (confidence 11)  [EEB780F2]  (AR v2)
Track  3  accurately ripped (confidence 11)  [07F53141]  (AR v2)
Track  4  accurately ripped (confidence 11)  [1A3C30C1]  (AR v2)
Track  5  accurately ripped (confidence 11)  [004374C7]  (AR v2)
Track  6  accurately ripped (confidence 11)  [ABEB0FFA]  (AR v2)
Track  7  accurately ripped (confidence 11)  [4FA9E2B9]  (AR v2)
Track  8  accurately ripped (confidence 11)  [032F6BFA]  (AR v2)
Track  9  accurately ripped (confidence 11)  [AFFF3F29]  (AR v2)
Track 10  accurately ripped (confidence 11)  [29A7FEDE]  (AR v2)
Track 11  accurately ripped (confidence 11)  [4491B17A]  (AR v2)
Track 12  accurately ripped (confidence 11)  [ED10A194]  (AR v2)
Track 13  accurately ripped (confidence 11)  [F7D7F306]  (AR v2)
Track 14  accurately ripped (confidence 11)  [0EB3D260]  (AR v2)
Track 15  accurately ripped (confidence 11)  [F0D99E27]  (AR v2)
 
All tracks accurately ripped

End of status report

---- CUETools DB Plugin V2.1.6

[CTDB TOCID: J6ljj_AycXRy1_lOhuakGEnu0lg-] found
Submit result: J6ljj_AycXRy1_lOhuakGEnu0lg- has been confirmed
Track | CTDB Status
  1   | (21/22) Accurately ripped
  2   | (22/22) Accurately ripped
  3   | (22/22) Accurately ripped
  4   | (22/22) Accurately ripped
  5   | (22/22) Accurately ripped
  6   | (22/22) Accurately ripped
  7   | (22/22) Accurately ripped
  8   | (22/22) Accurately ripped
  9   | (22/22) Accurately ripped
 10   | (22/22) Accurately ripped
 11   | (22/22) Accurately ripped
 12   | (21/22) Accurately ripped
 13   | (22/22) Accurately ripped
 14   | (22/22) Accurately ripped
 15   | (22/22) Accurately ripped




Create a new paste based on this one


Comments: