[ create a new paste ] login | about

Link: http://codepad.org/tzmHpoul    [ raw code | fork ]

Plain Text, pasted on Jun 17:
Exact Audio Copy V1.0 beta 6 from 9. April 2015

EAC extraction logfile from 1. May 2015, 18:18

Michael Jackson / HIStory- Past, Present and Future Book I (Disc 2)

Used drive  : ASUS    SDRW-08D2S-U   Adapter: 1  ID: 3

Read mode               : Secure
Utilize accurate stream : Yes
Defeat audio cache      : Yes
Make use of C2 pointers : No

Read offset correction                      : 6
Overread into Lead-In and Lead-Out          : No
Fill up missing offset samples with silence : Yes
Delete leading and trailing silent blocks   : No
Null samples used in CRC calculations       : Yes
Used interface                              : Native Win32 interface for Win NT & 2000

Used output format : Internal WAV Routines
Sample format      : 44.100 Hz; 16 Bit; Stereo


TOC of the extracted CD

     Track |   Start  |  Length  | Start sector | End sector 
    ---------------------------------------------------------
        1  |  0:00.00 |  4:38.72 |         0    |    20921   
        2  |  4:38.72 |  4:44.05 |     20922    |    42226   
        3  |  9:23.02 |  5:44.25 |     42227    |    68051   
        4  | 15:07.27 |  4:21.10 |     68052    |    87636   
        5  | 19:28.37 |  6:46.08 |     87637    |   118094   
        6  | 26:14.45 |  4:49.35 |    118095    |   139804   
        7  | 31:04.05 |  4:41.67 |    139805    |   160946   
        8  | 35:45.72 |  4:02.58 |    160947    |   179154   
        9  | 39:48.55 |  5:45.20 |    179155    |   205049   
       10  | 45:34.00 |  4:28.20 |    205050    |   225169   
       11  | 50:02.20 |  4:32.25 |    225170    |   245594   
       12  | 54:34.45 |  4:49.40 |    245595    |   267309   
       13  | 59:24.10 |  6:34.32 |    267310    |   296891   
       14  | 65:58.42 |  6:13.60 |    296892    |   324926   
       15  | 72:12.27 |  4:55.50 |    324927    |   347101   


Range status and errors

Selected range

     Filename C:\Music CD\Michael Jackson - HIStory- Past, Present and Future Book I (Disc 2).wav

     Peak level 100.0 %
     Extraction speed 5.2 X
     Range quality 100.0 %
     Test CRC F3E63E30
     Copy CRC F3E63E30
     Copy OK

No errors occurred

 
AccurateRip summary
 
Track  1  accurately ripped (confidence 200)  [87B95067]  (AR v2)
Track  2  accurately ripped (confidence 200)  [35F740EF]  (AR v2)
Track  3  accurately ripped (confidence 200)  [F3E855FD]  (AR v2)
Track  4  accurately ripped (confidence 200)  [6A02F7C8]  (AR v2)
Track  5  accurately ripped (confidence 200)  [FCE45664]  (AR v2)
Track  6  accurately ripped (confidence 200)  [F0D32C78]  (AR v2)
Track  7  accurately ripped (confidence 200)  [BA3E9ECC]  (AR v2)
Track  8  accurately ripped (confidence 200)  [7EDB74F8]  (AR v2)
Track  9  accurately ripped (confidence 200)  [935CBC8C]  (AR v2)
Track 10  accurately ripped (confidence 200)  [E568A477]  (AR v2)
Track 11  accurately ripped (confidence 200)  [6870C622]  (AR v2)
Track 12  accurately ripped (confidence 200)  [2FF7976A]  (AR v2)
Track 13  accurately ripped (confidence 200)  [C32BA5AF]  (AR v2)
Track 14  accurately ripped (confidence 200)  [943532B3]  (AR v2)
Track 15  accurately ripped (confidence 200)  [41143560]  (AR v2)
 
All tracks accurately ripped

End of status report

---- CUETools DB Plugin V2.1.6

[CTDB TOCID: u_ZJyzIBX6NMNt5NktrTZlsqpDM-] found
Submit result: u_ZJyzIBX6NMNt5NktrTZlsqpDM- has been confirmed
Track | CTDB Status
  1   | (408/412) Accurately ripped
  2   | (410/412) Accurately ripped
  3   | (411/412) Accurately ripped
  4   | (411/412) Accurately ripped
  5   | (411/412) Accurately ripped
  6   | (409/412) Accurately ripped
  7   | (410/412) Accurately ripped
  8   | (411/412) Accurately ripped
  9   | (409/412) Accurately ripped
 10   | (411/412) Accurately ripped
 11   | (411/412) Accurately ripped
 12   | (408/412) Accurately ripped
 13   | (411/412) Accurately ripped
 14   | (410/412) Accurately ripped
 15   | (394/412) Accurately ripped, or (10/412) differs in 77828 samples @04:54:40-04:55:36, or (2/412) differs in 9615 samples @04:55:28-04:55:37, or (2/412) differs in 9554 samples @04:55:28-04:55:37


==== Log checksum 70241113E5CA9463D1CEDA38360181145CCE8D3B3881AD0B8D9AB8D66912B368 ====



Create a new paste based on this one


Comments: