[ create a new paste ] login | about

Link: http://codepad.org/u0zqDpNa    [ raw code | fork ]

Plain Text, pasted on Aug 28:
foobar2000 1.3.17 / Dynamic Range Meter 1.1.1
log date: 2018-08-28 14:44:50

--------------------------------------------------------------------------------
Analyzed: Cheap Trick / ? (1)
          Harold Faltermeyer,Steve Stevens / ? (2)
          Harold Faltermeyer / ? (3)
          Jerry Lee Lewis / ? (4)
--------------------------------------------------------------------------------

DR         Peak         RMS     Duration Track
--------------------------------------------------------------------------------
DR11      -6.08 dB   -18.37 dB      3:51 02-Mighty Wings
DR10      -6.46 dB   -18.57 dB      4:12 10-Top Gun Anthem
DR11      -7.51 dB   -22.78 dB      2:55 12-Memories
DR15      -5.75 dB   -22.75 dB      1:50 13-Great Balls Of Fire
--------------------------------------------------------------------------------

Number of tracks:  4
Official DR value: DR11

Samplerate:        2822400 Hz / PCM Samplerate: 176400 Hz
Channels:          2
Bits per sample:   1
Bitrate:           5645 kbps
Codec:             DSD64
================================================================================

--------------------------------------------------------------------------------
Analyzed: Kenny Loggins / ?
--------------------------------------------------------------------------------

DR         Peak         RMS     Duration Track
--------------------------------------------------------------------------------
DR10      -5.14 dB   -17.62 dB      3:36 01-Danger Zone
DR10      -6.93 dB   -18.78 dB      3:59 03-Playing With The Boys
DR12      -6.10 dB   -19.90 dB      6:41 15-Playing With The Boys (12" Version)
--------------------------------------------------------------------------------

Number of tracks:  3
Official DR value: DR10

Samplerate:        2822400 Hz / PCM Samplerate: 176400 Hz
Channels:          2
Bits per sample:   1
Bitrate:           5645 kbps
Codec:             DSD64
================================================================================

--------------------------------------------------------------------------------
Statistics for: 08-Through The Fire
Number of samples: 635867904
Duration: 3:45 
--------------------------------------------------------------------------------

                 Left              Right

Peak Value:     -5.87 dB   ---     -6.43 dB   
Avg RMS:       -19.32 dB   ---    -19.64 dB   
DR channel:     12.04 dB   ---     12.07 dB   
--------------------------------------------------------------------------------

Official DR Value: DR12

Samplerate:        2822400 Hz / PCM Samplerate: 176400 Hz
Channels:          2
Bits per sample:   1
Bitrate:           5645 kbps
Codec:             DSD64
================================================================================
--------------------------------------------------------------------------------
Analyzed: Loverboy / ? (1)
          Marietta / ? (2)
--------------------------------------------------------------------------------

DR         Peak         RMS     Duration Track
--------------------------------------------------------------------------------
DR10      -8.21 dB   -20.70 dB      4:04 07-Heaven In Your Eyes
DR11      -6.51 dB   -19.33 dB      3:47 09-Destination Unknown
--------------------------------------------------------------------------------

Number of tracks:  2
Official DR value: DR11

Samplerate:        2822400 Hz / PCM Samplerate: 176400 Hz
Channels:          2
Bits per sample:   1
Bitrate:           5645 kbps
Codec:             DSD64
================================================================================

--------------------------------------------------------------------------------
Analyzed: Miami Sound Machine,Various / ? (1)
          Otis Redding / ? (2)
--------------------------------------------------------------------------------

DR         Peak         RMS     Duration Track
--------------------------------------------------------------------------------
DR11      -6.65 dB   -19.61 dB      3:37 06-Hot Summer Nights
DR12      -6.38 dB   -20.35 dB      2:41 11-(Sittin' On) The Dock Of The Bay
--------------------------------------------------------------------------------

Number of tracks:  2
Official DR value: DR11

Samplerate:        2822400 Hz / PCM Samplerate: 176400 Hz
Channels:          2
Bits per sample:   1
Bitrate:           5645 kbps
Codec:             DSD64
================================================================================

--------------------------------------------------------------------------------
Analyzed: Teena Marie / ? (1)
          The Righteous Brothers / ? (2)
--------------------------------------------------------------------------------

DR         Peak         RMS     Duration Track
--------------------------------------------------------------------------------
DR10      -6.78 dB   -19.16 dB      3:47 04-Lead Me On
DR11      -6.51 dB   -21.26 dB      3:42 14-You've Lost That Lovin' Feeling
--------------------------------------------------------------------------------

Number of tracks:  2
Official DR value: DR11

Samplerate:        2822400 Hz / PCM Samplerate: 176400 Hz
Channels:          2
Bits per sample:   1
Bitrate:           5645 kbps
Codec:             DSD64
================================================================================

foobar2000 1.3.17 / Dynamic Range Meter 1.1.1
log date: 2018-08-28 14:44:16

--------------------------------------------------------------------------------
Statistics for: 05-Take My Breath Away (Love Theme From "Top Gun")
Number of samples: 717717504
Duration: 4:14 
--------------------------------------------------------------------------------

                 Left              Right

Peak Value:     -6.95 dB   ---     -6.57 dB   
Avg RMS:       -18.76 dB   ---    -18.50 dB   
DR channel:     10.08 dB   ---     10.20 dB   
--------------------------------------------------------------------------------

Official DR Value: DR10

Samplerate:        2822400 Hz / PCM Samplerate: 176400 Hz
Channels:          2
Bits per sample:   1
Bitrate:           5645 kbps
Codec:             DSD64
================================================================================



Create a new paste based on this one


Comments: