[ create a new paste ] login | about

Link: http://codepad.org/u49qvhKX    [ raw code | fork ]

Plain Text, pasted on Dec 9:
foobar2000 1.6 / Dynamic Range Meter 1.1.1
log date: 2020-12-09 04:43:40

--------------------------------------------------------------------------------
Analyzed: Henry Mancini / Mancini Country
--------------------------------------------------------------------------------

DR         Peak         RMS     Duration Track
--------------------------------------------------------------------------------
DR15      -2.90 dB   -19.43 dB      3:05 01-Let It Be Me
DR7       -2.74 dB   -18.08 dB      2:55 02-Last Date
DR7       -2.88 dB   -19.18 dB      2:49 03-Almost Persuaded
DR7       -2.32 dB   -17.50 dB      3:10 04-Take Me To Your World
DR7       -5.15 dB   -21.05 dB      3:00 05-Release Me
DR7       -2.32 dB   -19.40 dB      3:21 06-You Don't Know Me
DR8       -2.50 dB   -19.42 dB      3:00 07-Phone Call To The Past
DR7       -1.55 dB   -18.65 dB      2:31 08-I Can't Stop Loving You
DR6       -2.39 dB   -18.19 dB      3:04 09-Make The World Go Away
DR7       -3.54 dB   -19.27 dB      3:16 10-Stand By Your Man
DR7       -3.23 dB   -19.48 dB      3:14 11-The End Of The World
DR8       -2.48 dB   -19.99 dB      2:42 12-Delta Dawn
DR8       -3.35 dB   -21.16 dB      3:16 13-If You've Got The Time (I've Got The Place)
DR8       -3.02 dB   -20.96 dB      3:05 14-A Picture Of Me (Without You)
DR7       -2.65 dB   -19.90 dB      2:41 15-Your Cheatin' Heart
DR7       -3.21 dB   -20.88 dB      2:54 16-For The Good Times
DR7       -0.92 dB   -18.40 dB      3:00 17-Take Me Home, Country Roads
DR8       -1.81 dB   -20.39 dB      2:33 18-Come Live With Me
DR7       -2.53 dB   -19.92 dB      2:31 19-With One Exception
DR8       -2.04 dB   -20.93 dB      2:40 20-The Ways To Love A Man
DR7       -1.94 dB   -20.09 dB      5:00 21-Medley
--------------------------------------------------------------------------------

Number of tracks:  21
Official DR value: DR8

Samplerate:        88200 Hz
Channels:          6
Bits per sample:   24
Bitrate:           5369 kbps
Codec:             FLAC
================================================================================




Create a new paste based on this one


Comments: