[ create a new paste ] login | about

Link: http://codepad.org/u7ofl3Ff    [ raw code | fork ]

Plain Text, pasted on Apr 30:
[CUETools log; Date: 4/30/2016 12:26:40 PM; Version: 2.1.5]
[CTDB TOCID: 5RHizmZOSHvh3biIIeNlRMU7fKI-] found.
Track | CTDB Status
  1   | (17/17) Accurately ripped
  2   | (17/17) Accurately ripped
  3   | (17/17) Accurately ripped
  4   | (17/17) Accurately ripped
  5   | (17/17) Accurately ripped
  6   | (17/17) Accurately ripped
  7   | (17/17) Accurately ripped
  8   | (17/17) Accurately ripped
  9   | (17/17) Accurately ripped
 10   | (17/17) Accurately ripped
 11   | (17/17) Accurately ripped
 12   | (17/17) Accurately ripped
[AccurateRip ID: 00133af5-00b6729b-9e0b200c] found.
Track   [  CRC   |   V2   ] Status
 01     [c91b1851|16ea29af] (43+30/73) Accurately ripped
 02     [287a920f|08328da8] (43+30/73) Accurately ripped
 03     [ca92810e|9afdfa82] (43+30/73) Accurately ripped
 04     [ec6fbaa2|e25dcb34] (43+30/73) Accurately ripped
 05     [8b7fb061|1b5dc579] (43+30/73) Accurately ripped
 06     [7fa35a42|484e7dfa] (43+27/70) Accurately ripped
 07     [36e38564|429bf407] (43+30/73) Accurately ripped
 08     [27c7edbe|a80febd5] (43+30/73) Accurately ripped
 09     [35aa591d|b9401fd9] (43+30/73) Accurately ripped
 10     [fe984d0c|81048ac7] (43+30/73) Accurately ripped
 11     [b2fd1eff|37943a58] (42+30/72) Accurately ripped
 12     [5568d32a|d90de998] (43+30/73) Accurately ripped

Track Peak [ CRC32  ] [W/O NULL] [  LOG   ]
 --   98.8 [62E4F4D9] [C314C7EE]           
 01   98.8 [3673C487] [B6090777]   CRC32   
 02   96.8 [74F0B463] [71B5C570]   CRC32   
 03   98.4 [C34CDE46] [67E5029A]   CRC32   
 04   98.8 [C0600060] [1F4A6388]   CRC32   
 05   98.8 [57CD744A] [2A36B8B7]   CRC32   
 06   95.1 [E3939559] [0555491D]   CRC32   
 07   98.8 [B21E49F5] [C18E2C09]   CRC32   
 08   98.8 [6198DF3E] [A30AB019]   CRC32   
 09   98.8 [E059E619] [63AD669C]   CRC32   
 10   98.8 [4FAE6AC1] [BB776C37]   CRC32   
 11   91.0 [2F4386A9] [79FB341C]   CRC32   
 12   97.3 [68F4B59C] [92E530CD]   CRC32   



Create a new paste based on this one


Comments: