[ create a new paste ] login | about

Link: http://codepad.org/uFRystqc    [ raw code | fork ]

Plain Text, pasted on Apr 6:
Exact Audio Copy V1.1 from 23. June 2015

EAC extraction logfile from 14. March 2017, 22:04

Various Artists (Priester) / Grand 12-Inches Vol.15

Used drive  : HL-DT-STDVDRAM GH24NS90   Adapter: 1  ID: 0

Read mode               : Secure
Utilize accurate stream : Yes
Defeat audio cache      : Yes
Make use of C2 pointers : No

Read offset correction                      : 6
Overread into Lead-In and Lead-Out          : No
Fill up missing offset samples with silence : Yes
Delete leading and trailing silent blocks   : No
Null samples used in CRC calculations       : Yes
Used interface                              : Native Win32 interface for Win NT & 2000
Gap handling                                : Appended to previous track

Used output format              : User Defined Encoder
Selected bitrate                : 1024 kBit/s
Quality                         : High
Add ID3 tag                     : No
Command line compressor         : C:\Program Files (x86)\Exact Audio Copy\Flac\flac.exe
Additional command line options : -8 -e -V -T "ARTIST=%artist%" -T "TITLE=%title%" -T "ALBUM=%albumtitle%" -T "DATE=%year%" -T "TRACKNUMBER=%tracknr%" -T "GENRE=%genre%" -T "PERFORMER=%albuminterpret%" -T "COMPOSER=%composer%" %haslyrics%--tag-from-file=LYRICS="%lyricsfile%"%haslyrics% -T "ALBUMARTIST=%albumartist%" -T "DISCNUMBER=%cdnumber%" -T "TOTALDISCS=%totalcds%" -T "TOTALTRACKS=%numtracks%" -T "COMMENT=%comment%" %source% -o %dest%


TOC of the extracted CD

     Track |   Start  |  Length  | Start sector | End sector 
    ---------------------------------------------------------
        1  |  0:00.00 | 11:48.00 |         0    |    53099   
        2  | 11:48.00 |  6:52.15 |     53100    |    84014   
        3  | 18:40.15 |  7:03.37 |     84015    |   115776   
        4  | 25:43.52 |  6:41.54 |    115777    |   145905   
        5  | 32:25.31 |  6:25.07 |    145906    |   174787   
        6  | 38:50.38 |  6:21.68 |    174788    |   203430   
        7  | 45:12.31 | 10:16.24 |    203431    |   249654   
        8  | 55:28.55 |  4:53.73 |    249655    |   271702   
        9  | 60:22.53 |  7:26.37 |    271703    |   305189   
       10  | 67:49.15 |  6:34.16 |    305190    |   334755   


Track  1

     Filename D:\Mijn Documenten\Bureaublad\Grand 12 inches 15 (flac)\cd4\01 - The Temptations - Papa Was A Rollin' Stone (Album Version).wav

     Pre-gap length  0:00:02.00

     Peak level 98.8 %
     Extraction speed 1.4 X
     Track quality 100.0 %
     Test CRC 448D8229
     Copy CRC 448D8229
     Accurately ripped (confidence 2)  [C89890C2]  (AR v2)
     Copy OK

Track  2

     Filename D:\Mijn Documenten\Bureaublad\Grand 12 inches 15 (flac)\cd4\02 - Barry White - It's Ectasy When You Lay Down Next To Me (12'' Disco Version).wav

     Pre-gap length  0:00:02.00

     Peak level 88.1 %
     Extraction speed 1.6 X
     Track quality 100.0 %
     Test CRC FE66B7AF
     Copy CRC FE66B7AF
     Accurately ripped (confidence 2)  [72489E3B]  (AR v2)
     Copy OK

Track  3

     Filename D:\Mijn Documenten\Bureaublad\Grand 12 inches 15 (flac)\cd4\03 - Grace Jones - Victor Should Have Been A Jazz Musican (The JAZZclubmillionminutemix By Ben Liebrand).wav

     Pre-gap length  0:00:02.00

     Peak level 98.8 %
     Extraction speed 1.8 X
     Track quality 100.0 %
     Test CRC 9B6BBD05
     Copy CRC 9B6BBD05
     Accurately ripped (confidence 2)  [47B53ED4]  (AR v2)
     Copy OK

Track  4

     Filename D:\Mijn Documenten\Bureaublad\Grand 12 inches 15 (flac)\cd4\04 - Paulinho Da Costa Feat. Philip Bailey - Déjà Vu (Full Length Version).wav

     Pre-gap length  0:00:02.00

     Peak level 98.8 %
     Extraction speed 1.8 X
     Track quality 99.9 %
     Test CRC EDB309CE
     Copy CRC EDB309CE
     Accurately ripped (confidence 2)  [B936ED76]  (AR v2)
     Copy OK

Track  5

     Filename D:\Mijn Documenten\Bureaublad\Grand 12 inches 15 (flac)\cd4\05 - Goody Goody - It Looks Like Love (Album Version).wav

     Pre-gap length  0:00:02.00

     Peak level 98.8 %
     Extraction speed 1.9 X
     Track quality 99.9 %
     Test CRC 8E1E7659
     Copy CRC 8E1E7659
     Accurately ripped (confidence 2)  [ACA9BC94]  (AR v2)
     Copy OK

Track  6

     Filename D:\Mijn Documenten\Bureaublad\Grand 12 inches 15 (flac)\cd4\06 - Odyssey - Inside Out (12'' Version).wav

     Pre-gap length  0:00:02.00

     Peak level 98.8 %
     Extraction speed 2.2 X
     Track quality 100.0 %
     Test CRC 1F47F430
     Copy CRC 1F47F430
     Accurately ripped (confidence 2)  [C8D29B4C]  (AR v2)
     Copy OK

Track  7

     Filename D:\Mijn Documenten\Bureaublad\Grand 12 inches 15 (flac)\cd4\07 - El Coco - Cocomotion (Part I & Part II) (12'' Version).wav

     Pre-gap length  0:00:02.00

     Peak level 93.1 %
     Extraction speed 2.4 X
     Track quality 100.0 %
     Test CRC 5F32E57D
     Copy CRC 5F32E57D
     Accurately ripped (confidence 2)  [A325A603]  (AR v2)
     Copy OK

Track  8

     Filename D:\Mijn Documenten\Bureaublad\Grand 12 inches 15 (flac)\cd4\08 - Ronnie Laws - Always There (Album Version).wav

     Pre-gap length  0:00:02.00

     Peak level 100.0 %
     Extraction speed 2.4 X
     Track quality 100.0 %
     Test CRC 6503570F
     Copy CRC 6503570F
     Accurately ripped (confidence 2)  [D045183D]  (AR v2)
     Copy OK

Track  9

     Filename D:\Mijn Documenten\Bureaublad\Grand 12 inches 15 (flac)\cd4\09 - Patrice Rushen - Hang It Up (12'' Version).wav

     Pre-gap length  0:00:02.00

     Peak level 98.8 %
     Extraction speed 2.4 X
     Track quality 99.9 %
     Test CRC 8EAB1C86
     Copy CRC 8EAB1C86
     Accurately ripped (confidence 2)  [29AE2F3D]  (AR v2)
     Copy OK

Track 10

     Filename D:\Mijn Documenten\Bureaublad\Grand 12 inches 15 (flac)\cd4\10 - Kool & The Gang - Summer Madness (Extended Mix).wav

     Pre-gap length  0:00:02.00

     Peak level 98.8 %
     Extraction speed 2.6 X
     Track quality 100.0 %
     Test CRC C214610E
     Copy CRC C214610E
     Accurately ripped (confidence 2)  [6489B69C]  (AR v2)
     Copy OK


All tracks accurately ripped

No errors occurred

End of status report

---- CUETools DB Plugin V2.1.6

[CTDB TOCID: fqNDiqLIuW7Edzhec1EpOJRpHbw-] found
Submit result: fqNDiqLIuW7Edzhec1EpOJRpHbw- has been confirmed
Track | CTDB Status
  1   | (12/12) Accurately ripped
  2   | (12/12) Accurately ripped
  3   | (12/12) Accurately ripped
  4   | (12/12) Accurately ripped
  5   | (12/12) Accurately ripped
  6   | (12/12) Accurately ripped
  7   | (12/12) Accurately ripped
  8   | (12/12) Accurately ripped
  9   | (12/12) Accurately ripped
 10   | (12/12) Accurately ripped


==== Log checksum 2EA648EA7117932DC5E3CCC0C6673D280D01EE8CF683946FA4C9BC3D07F7E31F ====



Create a new paste based on this one


Comments: