[ create a new paste ] login | about

Link: http://codepad.org/uHTmaLTw    [ raw code | fork ]

Plain Text, pasted on Aug 19:
foobar2000 1.2.9 / Dynamic Range Meter 1.1.1
log date: 2014-08-15 00:54:27

--------------------------------------------------------------------------------
Analyzed: The Weavers / Reunion at Carnegie Hall (2013 AP Hybrid SACD)
--------------------------------------------------------------------------------

DR         Peak         RMS     Duration Track
--------------------------------------------------------------------------------
DR7       -2.62 dB   -21.12 dB      2:33 01-When The Saints Go Marching In
DR8       -5.47 dB   -26.75 dB      3:14 02-Banks of Marble
DR7       -2.40 dB   -21.48 dB      2:54 03-Woke Up This Morning
DR7       -3.66 dB   -24.47 dB      4:25 04-Ramblin' Boy
DR7       -4.53 dB   -23.32 dB      2:49 05-Poor Liza
DR10      -5.93 dB   -28.65 dB      5:15 06-Train Time
DR6       -4.15 dB   -21.55 dB      2:09 07-Wimoweh
DR8       -5.92 dB   -25.23 dB      4:12 08-San Francisco Bay Blues
DR9       -5.31 dB   -30.17 dB      4:32 09-Guantanamera
DR7       -4.36 dB   -22.11 dB      2:16 10-If I Had A Hammer
DR11      -7.05 dB   -37.32 dB      2:35 11-Come Away Melinda
DR7       -4.30 dB   -21.76 dB      2:40 12-Study War No More
DR7       -3.56 dB   -23.93 dB      4:10 13-Goodnight, Irene
DR7       -3.60 dB   -22.85 dB      5:57 14-'Round The World
--------------------------------------------------------------------------------

Number of tracks:  14
Official DR value: DR8

Samplerate:        88200 Hz
Channels:          6
Bits per sample:   24
Bitrate:           4101 kbps
Codec:             FLAC
================================================================================




Create a new paste based on this one


Comments: