[ create a new paste ] login | about

Link: http://codepad.org/uNDC1ukJ    [ raw code | fork ]

Plain Text, pasted on Sep 6:
foobar2000 1.3.17 / Dynamic Range Meter 1.1.1
log date: 2018-09-06 11:00:19

--------------------------------------------------------------------------------
Analyzed: Muddy Waters / Folk Singer
--------------------------------------------------------------------------------

DR         Peak         RMS     Duration Track
--------------------------------------------------------------------------------
DR15      -6.75 dB   -28.52 dB      3:58 01-My Home Is In The Delta
DR18      -8.35 dB   -30.89 dB      3:31 02-Long Distance
DR17      -9.11 dB   -32.36 dB      5:11 03-My Captain
DR15     -10.86 dB   -29.70 dB      3:13 04-Good Morning School Girl
DR12      -7.97 dB   -26.30 dB      3:10 05-You Gonna Need My Help
DR17      -7.70 dB   -32.86 dB      4:40 06-Cold Weather Blues
DR16     -12.85 dB   -33.21 dB      3:27 07-Big Leg Woman
DR17      -7.24 dB   -29.29 dB      3:27 08-Country Boy
DR16      -7.25 dB   -28.98 dB      3:53 09-Feel Like Going Home
DR13      -6.61 dB   -23.57 dB      2:45 10-The Same Thing (Bonus Track)
DR14      -5.35 dB   -22.25 dB      3:01 11-You Can't Lose What You Ain't Never Had (Bonus Track)
--------------------------------------------------------------------------------

Number of tracks:  11
Official DR value: DR16

Samplerate:        2822400 Hz / PCM Samplerate: 176400 Hz
Channels:          2
Bits per sample:   1
Bitrate:           5645 kbps
Codec:             DSD64
================================================================================




Create a new paste based on this one


Comments: