[ create a new paste ] login | about

Link: http://codepad.org/uNssZuJo    [ raw code | fork ]

Plain Text, pasted on Sep 12:
[CUETools log; Date: 9/12/2020 7:08:17 PM; Version: 2.1.7]
[CTDB TOCID: q8t9Mx.vczL32jpeJcP7jaLkDmo-] found.
Track | CTDB Status
  1   | (8/8) Accurately ripped
  2   | (8/8) Accurately ripped
  3   | (8/8) Accurately ripped
  4   | (8/8) Accurately ripped
  5   | (8/8) Accurately ripped
  6   | (8/8) Accurately ripped
  7   | (8/8) Accurately ripped
  8   | (8/8) Accurately ripped
  9   | (8/8) Accurately ripped
 10   | (8/8) Accurately ripped
 11   | (8/8) Accurately ripped
 12   | (8/8) Accurately ripped
[AccurateRip ID: 000e8c38-0087e807-b207cd0c] found.
Track   [  CRC   |   V2   ] Status
 01     [bd69ac53|f431d329] (0+2/2) Accurately ripped
 02     [42e470fb|74d3a614] (0+2/2) Accurately ripped
 03     [d04517e2|ddc0ecb0] (0+2/2) Accurately ripped
 04     [8cff4fc7|1761c698] (0+2/2) Accurately ripped
 05     [1bab488c|54936dc7] (0+2/2) Accurately ripped
 06     [3b102191|f6f64d15] (0+2/2) Accurately ripped
 07     [decebb24|e117ad66] (0+2/2) Accurately ripped
 08     [5f563665|269e152c] (0+2/2) Accurately ripped
 09     [eab26422|6d22e97b] (0+2/2) Accurately ripped
 10     [310f104a|f9095683] (0+2/2) Accurately ripped
 11     [29e37b2a|7553ca94] (0+2/2) Accurately ripped
 12     [750edfcd|9f3998a3] (0+2/2) Accurately ripped

Track Peak [ CRC32  ] [W/O NULL] [  LOG   ]
 --   96.4 [E5B8DD27] [4CBD7990]           
 01   95.9 [AA713567] [5BDD64DD]   CRC32   
 02   86.4 [79C8EF5B] [DB6E2EA9]   CRC32   
 03   92.5 [33CA6680] [EA8E0B30]   CRC32   
 04   92.6 [A880D5A7] [7CFAB8D5]   CRC32   
 05   93.7 [FD10239E] [50C42E06]   CRC32   
 06   89.1 [8325B31F] [717ABEA2]   CRC32   
 07   78.6 [07BDEFBD] [79F3258D]   CRC32   
 08   96.4 [391DBDDF] [CD369754]   CRC32   
 09   73.7 [A572BC4F] [C2531874]   CRC32   
 10   86.7 [560B846F] [00AE7416]   CRC32   
 11   94.4 [9CD3F8AC] [7BE289F7]   CRC32   
 12   96.1 [3D2AF05F] [D9346AF1]   CRC32   



Create a new paste based on this one


Comments: