[ create a new paste ] login | about

Link: http://codepad.org/uPJFv4oC    [ raw code | fork ]

Plain Text, pasted on Jul 19:
foobar2000 1.3.17 / Dynamic Range Meter 1.1.1
log date: 2018-07-18 14:26:10

--------------------------------------------------------------------------------
Analyzed: Public Image Limited / Flowers Of Romance
--------------------------------------------------------------------------------

DR         Peak         RMS     Duration Track
--------------------------------------------------------------------------------
DR15      -3.85 dB   -21.61 dB      4:46 01-Four Enclosed Walls
DR14      -6.31 dB   -21.66 dB      3:15 02-Track 8
DR13      -6.12 dB   -23.11 dB      2:41 03-Phenagen
DR13      -4.42 dB   -19.73 dB      2:52 04-Flowers Of Romance
DR13      -5.34 dB   -20.49 dB      4:34 05-Under The House
DR12      -7.91 dB   -20.97 dB      3:19 06-Hymie's Him
DR12      -5.48 dB   -19.13 dB      4:50 07-Banging The Door
DR15      -3.69 dB   -20.76 dB      3:48 08-Go Back
DR12      -5.78 dB   -20.01 dB      3:33 09-Francis Massacre
--------------------------------------------------------------------------------

Number of tracks:  9
Official DR value: DR13

Samplerate:        2822400 Hz / PCM Samplerate: 176400 Hz
Channels:          2
Bits per sample:   1
Bitrate:           5645 kbps
Codec:             DSD64
================================================================================




Create a new paste based on this one


Comments: