[ create a new paste ] login | about

Link: http://codepad.org/uT0gPRyH    [ raw code | fork ]

Plain Text, pasted on Jul 16:
foobar2000 1.5 / Dynamic Range Meter 1.1.1
log date: 2020-07-16 20:33:08

--------------------------------------------------------------------------------
Analyzed: Netherlands Philharmonic Orchestra, Elizabeth Watts, soprano, Marc Albrecht, conductor / Gustav Mahler, Symphony No. 4 (1)
          Netherlands Philharmonic Orchestra, Marc Albrecht, conductor / Gustav Mahler, Symphony No. 4 (2-4)
--------------------------------------------------------------------------------

DR         Peak         RMS     Duration Track
--------------------------------------------------------------------------------
DR16     -15.14 dB   -40.35 dB      9:21 04-Symphony No. 4 - Sehr behaglich \'Wir genie?en die himmlischen Freuden\'(Des Knaben Wunderhorn)
DR21      -0.01 dB   -31.26 dB     16:33 01-Symphony No. 4 - Bedächtig. Nicht eilen -  Recht gemächlich
DR15     -18.89 dB   -40.68 dB     10:15 02-Symphony No. 4 - In gemächlicher Bewegung. Ohne Hast
DR20      -1.40 dB   -32.90 dB     21:43 03-Symphony No. 4 - Ruhevoll (Poco adagio)
--------------------------------------------------------------------------------

Number of tracks:  4
Official DR value: DR18

Samplerate:        88200 Hz
Channels:          5
Bits per sample:   24
Bitrate:           4684 kbps
Codec:             FLAC
================================================================================




Create a new paste based on this one


Comments: