[ create a new paste ] login | about

Link: http://codepad.org/uYlprsbD    [ raw code | fork ]

Plain Text, pasted on Feb 12:
foobar2000 1.3.17 / Dynamic Range Meter 1.1.1
log date: 2018-02-11 17:59:20

--------------------------------------------------------------------------------
Analyzed: Jethro Tull / Aqualung (Flat Transfer From The Original Stereo Master)
--------------------------------------------------------------------------------

DR         Peak         RMS     Duration Track
--------------------------------------------------------------------------------
DR15      -2.83 dB   -21.37 dB      6:38 01-Aqualung
DR13      -4.03 dB   -20.06 dB      4:12 02-Cross-Eyed Mary
DR15      -4.14 dB   -23.75 dB      1:23 03-Cheap Day Return
DR15      -3.87 dB   -22.27 dB      3:53 04-Mother Goose
DR15      -4.44 dB   -24.97 dB      1:56 05-Wond'ring Aloud
DR15      -2.95 dB   -21.66 dB      3:17 06-Up To Me
DR15      -0.54 dB   -20.52 dB      7:13 07-My God
DR14      -3.24 dB   -20.01 dB      3:19 08-Hymn 43
DR15      -3.71 dB   -24.23 dB      1:13 09-Slipstream
DR15      -2.59 dB   -22.28 dB      4:26 10-Locomotive Breath
DR14      -5.81 dB   -23.65 dB      6:03 11-Wind-Up
--------------------------------------------------------------------------------

Number of tracks:  11
Official DR value: DR15

Samplerate:        96000 Hz
Channels:          2
Bits per sample:   24
Bitrate:           2560 kbps
Codec:             FLAC
================================================================================




Create a new paste based on this one


Comments: