[ create a new paste ] login | about

Link: http://codepad.org/uabjEYRM    [ raw code | fork ]

Plain Text, pasted on May 12:
foobar2000 1.3.8 / Dynamic Range Meter 1.1.1
log date: 2015-10-01 10:28:23

--------------------------------------------------------------------------------
Analyzed: B.B. King & Eric Clapton / Riding With The King (2015 AF Hybrid SACD)
--------------------------------------------------------------------------------

DR         Peak         RMS     Duration Track
--------------------------------------------------------------------------------
DR10      -5.39 dB   -18.32 dB      4:26 01-Riding with the King
DR16      -2.16 dB   -20.89 dB      4:43 02-Ten Long Years
DR14      -4.94 dB   -22.17 dB      3:42 03-Key to the Highway
DR11      -5.55 dB   -18.92 dB      5:04 04-Marry You
DR14      -2.35 dB   -19.52 dB      8:40 05-Three O'Clock Blues
DR10      -5.04 dB   -17.07 dB      5:10 06-Help the Poor
DR9       -6.78 dB   -17.80 dB      4:50 07-I Wanna Be
DR14      -3.95 dB   -21.39 dB      4:30 08-Worried Life Blues
DR13      -2.12 dB   -17.85 dB      3:03 09-Day of Old
DR14      -2.22 dB   -19.33 dB      7:12 10-When My Heart Beats Like a Hammer
DR15      -2.28 dB   -18.49 dB      6:25 11-Hold On, I'm Comin'
DR11      -5.50 dB   -19.88 dB      4:16 12-Come Rain or Come Shine
--------------------------------------------------------------------------------

Number of tracks:  12
Official DR value: DR13

Samplerate:        88200 Hz
Channels:          2
Bits per sample:   24
Bitrate:           2494 kbps
Codec:             FLAC
================================================================================




Create a new paste based on this one


Comments: