[ create a new paste ] login | about

Link: http://codepad.org/uhPOABMI    [ raw code | fork ]

Plain Text, pasted on Mar 18:
foobar2000 1.5 / Dynamic Range Meter 1.1.1
log date: 2020-03-18 17:58:56

--------------------------------------------------------------------------------
Analyzed: Grateful Dead / ?
--------------------------------------------------------------------------------

DR         Peak         RMS     Duration Track
--------------------------------------------------------------------------------
DR11      -6.37 dB   -19.41 dB      4:43 01-U.S. Blues
DR13      -5.77 dB   -22.24 dB      4:11 02-China Doll
DR12      -6.55 dB   -20.68 dB      6:46 03-Unbroken Chain
DR11      -5.98 dB   -18.79 dB      3:24 04-Loose Lucy
DR12      -5.68 dB   -19.37 dB      4:19 05-Scarlet Begonias
DR12      -6.33 dB   -19.75 dB      4:18 06-Pride of Cucamonga
DR11      -6.34 dB   -19.19 dB      4:24 07-Money Money
DR12      -6.07 dB   -21.26 dB      5:30 08-Ship of Fools
--------------------------------------------------------------------------------

Number of tracks:  8
Official DR value: DR12

Samplerate:        2822400 Hz / PCM Samplerate: 176400 Hz
Channels:          2
Bits per sample:   1
Bitrate:           5645 kbps
Codec:             DSD64
================================================================================




Create a new paste based on this one


Comments: