[ create a new paste ] login | about

Link: http://codepad.org/uhTgG7h0    [ raw code | fork ]

Plain Text, pasted on Jun 23:
foobar2000 1.5.4 / Dynamic Range Meter 1.1.1
log date: 2020-06-19 23:09:14

--------------------------------------------------------------------------------
Analyzed: Dusty Springfield / Female Vocal Anthology (Disc 1) (1)
          Ella Fitzgerald / Female Vocal Anthology (Disc 1) (2)
          Holly Cole / Female Vocal Anthology (Disc 1) (3)
          Janis Ian / Female Vocal Anthology (Disc 1) (4)
          Julie London / Female Vocal Anthology (Disc 1) (5)
          Myra Taylor / Female Vocal Anthology (Disc 1) (6)
          Nina Simone / Female Vocal Anthology (Disc 1) (7)
          Patricia Barber / Female Vocal Anthology (Disc 1) (8)
          Patsy Cline / Female Vocal Anthology (Disc 1) (9)
          Phoebe Snow / Female Vocal Anthology (Disc 1) (10)
          Rickie Lee Jones / Female Vocal Anthology (Disc 1) (11)
          Shelby Lynne / Female Vocal Anthology (Disc 1) (12)
--------------------------------------------------------------------------------

DR         Peak         RMS     Duration Track
--------------------------------------------------------------------------------
DR12      -0.01 dB   -15.89 dB      2:29 04-Son Of A Preacher Man
DR11      -1.62 dB   -16.56 dB      3:29 02-Black Coffee
DR12      -1.56 dB   -19.00 dB      3:41 08-Tennessee Waltz
DR17      -0.98 dB   -21.88 dB      3:11 09-Breaking Silence
DR9       -4.17 dB   -17.07 dB      3:02 01-Cry Me A River
DR14      -3.14 dB   -20.88 dB      4:01 10-Hey There
DR14      -0.20 dB   -21.65 dB      3:55 12-Plain Gold Ring
DR12      -0.36 dB   -15.71 dB      5:25 11-What a Shame
DR12      -3.57 dB   -17.81 dB      2:44 07-Crazy
DR12      -2.18 dB   -17.79 dB      4:39 03-Poetry Man
DR12      -2.00 dB   -18.02 dB      4:37 06-Show Biz Kids
DR14      -0.49 dB   -18.85 dB      5:23 05-Just A Little Lovin'
--------------------------------------------------------------------------------

Number of tracks:  12
Official DR value: DR13

Samplerate:        88200 Hz
Channels:          2
Bits per sample:   24
Bitrate:           2585 kbps
Codec:             FLAC
================================================================================

foobar2000 1.5.4 / Dynamic Range Meter 1.1.1
log date: 2020-06-19 23:09:36

--------------------------------------------------------------------------------
Analyzed: Diana Krall / Female Vocal Anthology (Disc 2) (1)
          Dusty Springfield / Female Vocal Anthology (Disc 2) (2)
          Jennifer Warnes / Female Vocal Anthology (Disc 2) (3)
          Joan Armatrading / Female Vocal Anthology (Disc 2) (4)
          Joan Baez / Female Vocal Anthology (Disc 2) (5-6)
          Judy Collins / Female Vocal Anthology (Disc 2) (7)
          Julie London / Female Vocal Anthology (Disc 2) (8)
          Nancy Bryan / Female Vocal Anthology (Disc 2) (9)
          Rickie Lee Jones / Female Vocal Anthology (Disc 2) (10)
--------------------------------------------------------------------------------

DR         Peak         RMS     Duration Track
--------------------------------------------------------------------------------
DR14      -4.55 dB   -23.80 dB      6:42 08-A Case of You
DR13      -2.89 dB   -20.54 dB      4:10 09-The Look of Love
DR14      -3.66 dB   -20.41 dB      6:51 07-Ballad Of The Runaway Horse
DR13      -2.98 dB   -18.14 dB      3:36 05-Somebody Who Loves You
DR13      -2.76 dB   -19.35 dB      3:46 04-Diamonds and Rust
DR14      -0.01 dB   -18.64 dB      5:10 10-Brothers In Arms
DR13      -3.71 dB   -21.41 dB      4:04 06-Send In the Clowns
DR12      -2.63 dB   -18.66 dB      2:34 02-Blue Moon
DR13      -2.06 dB   -18.99 dB      4:53 03-Blame It on the Moon
DR12      -4.19 dB   -19.07 dB      3:42 01-The Moon Is Made Of Gold
--------------------------------------------------------------------------------

Number of tracks:  10
Official DR value: DR13

Samplerate:        88200 Hz
Channels:          2
Bits per sample:   24
Bitrate:           2350 kbps
Codec:             FLAC
================================================================================




Create a new paste based on this one


Comments: