[ create a new paste ] login | about

Link: http://codepad.org/uo5dcgKi    [ raw code | fork ]

Plain Text, pasted on Aug 22:
Disc Title:     Disc 1
Disc Size:      46,110,331,221 bytes
Protection:     AACS
BD-Java:        No
BDInfo:         0.5.8

Notes:          

BDINFO HOME:
  Cinema Squid
    http://www.cinemasquid.com/blu-ray/tools/bdinfo

INCLUDES FORUMS REPORT FOR:
  AVS Forum Blu-ray Audio and Video Specifications Thread
    http://www.avsforum.com/avs-vb/showthread.php?t=1155731


********************
PLAYLIST: 00003.MPLS
********************

<--- BEGIN FORUMS PASTE --->
[code]
                                                                                                                Total   Video                                             
Title                                                           Codec   Length  Movie Size      Disc Size       Bitrate Bitrate Main Audio Track                          Secondary Audio Track
-----                                                           ------  ------- --------------  --------------  ------- ------- ------------------                        ---------------------
00003.MPLS                                                      MPEG-2  1:18:50 23,723,311,104  46,110,331,221  40.12   24.89   LPCM 2.0 4608Kbps (96kHz/24-bit)          DTS-HD Master 5.1 8558Kbps (96kHz/24-bit)
[/code]

[code]

DISC INFO:

Disc Title:     Disc 1
Disc Size:      46,110,331,221 bytes
Protection:     AACS
BD-Java:        No
BDInfo:         0.5.8

PLAYLIST REPORT:

Name:                   00003.MPLS
Length:                 1:18:50.492 (h:m:s.ms)
Size:                   23,723,311,104 bytes
Total Bitrate:          40.12 Mbps

VIDEO:

Codec                   Bitrate             Description     
-----                   -------             -----------     
MPEG-2 Video            24893 kbps          1080i / 29.970 fps

AUDIO:

Codec                           Language        Bitrate         Description     
-----                           --------        -------         -----------     
LPCM Audio                      English         4608 kbps       2.0 / 96 kHz / 4608 kbps / 24-bit
DTS-HD Master Audio             English         8558 kbps       5.1 / 96 kHz / 8558 kbps / 24-bit (DTS Core: 5.1 / 48 kHz / 1509 kbps / 24-bit)

FILES:

Name            Time In         Length          Size            Total Bitrate   
----            -------         ------          ----            -------------   
00004.M2TS      0:00:00.000     1:18:50.492     23,723,311,104  40,120          

CHAPTERS:

Number          Time In         Length          Avg Video Rate  Max 1-Sec Rate  Max 1-Sec Time  Max 5-Sec Rate  Max 5-Sec Time  Max 10Sec Rate  Max 10Sec Time  Avg Frame Size  Max Frame Size  Max Frame Time  
------          -------         ------          --------------  --------------  --------------  --------------  --------------  --------------  --------------  --------------  --------------  --------------  
1               0:00:00.000     0:08:36.516     24,404 kbps     36,866 kbps     00:06:29.055    31,271 kbps     00:07:52.338    30,603 kbps     00:07:52.338    101,778 bytes   828,999 bytes   00:07:08.828    
2               0:08:36.516     0:07:43.262     24,829 kbps     36,921 kbps     00:10:17.283    31,458 kbps     00:13:31.477    30,436 kbps     00:15:40.506    103,558 bytes   754,631 bytes   00:13:31.610    
3               0:16:19.778     0:11:11.871     23,899 kbps     37,186 kbps     00:19:37.843    31,331 kbps     00:18:16.662    30,468 kbps     00:19:41.180    99,679 bytes    878,502 bytes   00:24:49.487    
4               0:27:31.650     0:07:04.824     26,926 kbps     36,743 kbps     00:32:13.898    31,491 kbps     00:31:05.330    30,514 kbps     00:33:52.030    112,306 bytes   778,382 bytes   00:31:43.101    
5               0:34:36.474     0:08:58.538     24,597 kbps     36,722 kbps     00:40:57.521    31,399 kbps     00:41:36.861    30,529 kbps     00:38:34.779    102,590 bytes   716,459 bytes   00:38:49.927    
6               0:43:35.012     0:09:20.960     26,408 kbps     37,079 kbps     00:49:12.015    31,379 kbps     00:51:51.074    30,526 kbps     00:51:34.558    110,142 bytes   757,464 bytes   00:44:01.839    
7               0:52:55.972     0:06:43.603     23,231 kbps     36,782 kbps     00:57:58.541    31,319 kbps     00:56:17.607    30,521 kbps     00:55:41.104    96,895 bytes    763,827 bytes   00:55:22.519    
8               0:59:39.576     0:12:30.750     25,092 kbps     37,481 kbps     01:08:05.548    31,432 kbps     01:10:34.496    30,228 kbps     01:05:51.814    104,655 bytes   723,730 bytes   01:04:35.872    
9               1:12:10.326     0:06:40.166     24,685 kbps     36,429 kbps     01:16:33.255    31,204 kbps     01:15:11.173    30,592 kbps     01:15:57.853    102,965 bytes   689,695 bytes   01:13:01.176    

STREAM DIAGNOSTICS:

File            PID             Type            Codec           Language                Seconds                 Bitrate                 Bytes           Packets         
----            ---             ----            -----           --------                --------------          --------------          -------------   -----           
00004.M2TS      4113 (0x1011)   0x02            MPEG-2                                  4730.426                24,893                  14,719,485,923  80,079,925      
00004.M2TS      4352 (0x1100)   0x80            LPCM            eng (English)           4730.426                4,598                   2,718,865,044   15,083,856      
00004.M2TS      4353 (0x1101)   0x86            DTS-HD MA       eng (English)           4730.426                8,558                   5,060,173,896   28,236,015      

[/code]
<---- END FORUMS PASTE ---->

QUICK SUMMARY:

Disc Title: Disc 1
Disc Size: 46,110,331,221 bytes
Protection: AACS
BD-Java: No
Playlist: 00003.MPLS
Size: 23,723,311,104 bytes
Length: 1:18:50.492
Total Bitrate: 40.12 Mbps
Video: MPEG-2 Video / 24893 kbps / 1080i / 29.970 fps
Audio: English / LPCM Audio / 2.0 / 96 kHz / 4608 kbps / 24-bit
Audio: English / DTS-HD Master Audio / 5.1 / 96 kHz / 8558 kbps / 24-bit (DTS Core: 5.1 / 48 kHz / 1509 kbps / 24-bit)


********************
PLAYLIST: 00002.MPLS
********************

<--- BEGIN FORUMS PASTE --->
[code]
                                                                                                                Total   Video                                             
Title                                                           Codec   Length  Movie Size      Disc Size       Bitrate Bitrate Main Audio Track                          Secondary Audio Track
-----                                                           ------  ------- --------------  --------------  ------- ------- ------------------                        ---------------------
00002.MPLS                                                      MPEG-2  1:15:30 21,969,081,024  46,110,331,221  38.79   24.92   LPCM 2.0 4608Kbps (96kHz/24-bit)          DTS-HD Master 5.1 7247Kbps (96kHz/24-bit)
[/code]

[code]

DISC INFO:

Disc Title:     Disc 1
Disc Size:      46,110,331,221 bytes
Protection:     AACS
BD-Java:        No
BDInfo:         0.5.8

PLAYLIST REPORT:

Name:                   00002.MPLS
Length:                 1:15:30.526 (h:m:s.ms)
Size:                   21,969,081,024 bytes
Total Bitrate:          38.79 Mbps

VIDEO:

Codec                   Bitrate             Description     
-----                   -------             -----------     
MPEG-2 Video            24915 kbps          1080i / 29.970 fps

AUDIO:

Codec                           Language        Bitrate         Description     
-----                           --------        -------         -----------     
LPCM Audio                      English         4608 kbps       2.0 / 96 kHz / 4608 kbps / 24-bit
DTS-HD Master Audio             English         7247 kbps       5.1 / 96 kHz / 7247 kbps / 24-bit (DTS Core: 5.1 / 48 kHz / 1509 kbps / 24-bit)

FILES:

Name            Time In         Length          Size            Total Bitrate   
----            -------         ------          ----            -------------   
00002.M2TS      0:00:00.000     1:15:30.526     21,969,081,024  38,793          

CHAPTERS:

Number          Time In         Length          Avg Video Rate  Max 1-Sec Rate  Max 1-Sec Time  Max 5-Sec Rate  Max 5-Sec Time  Max 10Sec Rate  Max 10Sec Time  Avg Frame Size  Max Frame Size  Max Frame Time  
------          -------         ------          --------------  --------------  --------------  --------------  --------------  --------------  --------------  --------------  --------------  --------------  
1               0:00:00.000     0:19:55.194     23,950 kbps     37,165 kbps     00:14:02.308    31,412 kbps     00:14:48.320    30,409 kbps     00:10:48.114    99,887 bytes    781,028 bytes   00:11:03.863    
2               0:19:55.194     0:09:09.348     23,538 kbps     37,094 kbps     00:22:39.157    31,084 kbps     00:25:27.325    30,359 kbps     00:25:33.598    98,172 bytes    736,029 bytes   00:20:54.453    
3               0:29:04.542     0:20:07.606     25,749 kbps     37,518 kbps     00:47:02.786    31,360 kbps     00:48:43.587    30,711 kbps     00:35:04.969    107,397 bytes   798,017 bytes   00:46:30.788    
4               0:49:12.149     0:07:42.061     25,223 kbps     36,589 kbps     00:52:49.833    31,364 kbps     00:56:05.628    30,491 kbps     00:54:32.235    105,202 bytes   781,212 bytes   00:50:10.907    
5               0:56:54.210     0:16:48.607     26,316 kbps     37,332 kbps     01:13:13.055    31,410 kbps     01:06:27.450    30,525 kbps     01:05:23.986    109,758 bytes   881,992 bytes   01:07:52.468    
6               1:13:42.818     0:01:47.707     18,866 kbps     34,372 kbps     01:13:52.728    29,664 kbps     01:13:52.761    26,890 kbps     01:13:52.795    78,688 bytes    589,024 bytes   01:13:52.828    

STREAM DIAGNOSTICS:

File            PID             Type            Codec           Language                Seconds                 Bitrate                 Bytes           Packets         
----            ---             ----            -----           --------                --------------          --------------          -------------   -----           
00002.M2TS      4113 (0x1011)   0x02            MPEG-2                                  4537.733                24,883                  14,113,939,105  76,785,359      
00002.M2TS      4352 (0x1100)   0x80            LPCM            eng (English)           4537.733                4,607                   2,613,186,632   14,497,568      
00002.M2TS      4353 (0x1101)   0x86            DTS-HD MA       eng (English)           4537.733                7,235                   4,103,936,992   23,009,885      

[/code]
<---- END FORUMS PASTE ---->

QUICK SUMMARY:

Disc Title: Disc 1
Disc Size: 46,110,331,221 bytes
Protection: AACS
BD-Java: No
Playlist: 00002.MPLS
Size: 21,969,081,024 bytes
Length: 1:15:30.526
Total Bitrate: 38.79 Mbps
Video: MPEG-2 Video / 24915 kbps / 1080i / 29.970 fps
Audio: English / LPCM Audio / 2.0 / 96 kHz / 4608 kbps / 24-bit
Audio: English / DTS-HD Master Audio / 5.1 / 96 kHz / 7247 kbps / 24-bit (DTS Core: 5.1 / 48 kHz / 1509 kbps / 24-bit)


********************
PLAYLIST: 00001.MPLS
********************

<--- BEGIN FORUMS PASTE --->
[code]
                                                                                                                Total   Video                                             
Title                                                           Codec   Length  Movie Size      Disc Size       Bitrate Bitrate Main Audio Track                          Secondary Audio Track
-----                                                           ------  ------- --------------  --------------  ------- ------- ------------------                        ---------------------
00001.MPLS                                                      MPEG-2  0:00:21 99,483,648      46,110,331,221  37.44   35.80                                             
[/code]

[code]

DISC INFO:

Disc Title:     Disc 1
Disc Size:      46,110,331,221 bytes
Protection:     AACS
BD-Java:        No
BDInfo:         0.5.8

PLAYLIST REPORT:

Name:                   00001.MPLS
Length:                 0:00:21.254 (h:m:s.ms)
Size:                   99,483,648 bytes
Total Bitrate:          37.44 Mbps

VIDEO:

Codec                   Bitrate             Description     
-----                   -------             -----------     
MPEG-2 Video            35799 kbps          480i / 29.970 fps / 16:9

FILES:

Name            Time In         Length          Size            Total Bitrate   
----            -------         ------          ----            -------------   
00001.M2TS      0:00:00.000     0:00:21.254     99,483,648      37,445          

CHAPTERS:

Number          Time In         Length          Avg Video Rate  Max 1-Sec Rate  Max 1-Sec Time  Max 5-Sec Rate  Max 5-Sec Time  Max 10Sec Rate  Max 10Sec Time  Avg Frame Size  Max Frame Size  Max Frame Time  
------          -------         ------          --------------  --------------  --------------  --------------  --------------  --------------  --------------  --------------  --------------  --------------  
1               0:00:00.000     0:00:21.254     35,799 kbps     41,439 kbps     00:00:01.568    38,087 kbps     00:00:01.568    37,556 kbps     00:00:01.568    149,311 bytes   610,423 bytes   00:00:01.201    

STREAM DIAGNOSTICS:

File            PID             Type            Codec           Language                Seconds                 Bitrate                 Bytes           Packets         
----            ---             ----            -----           --------                --------------          --------------          -------------   -----           
00001.M2TS      4113 (0x1011)   0x02            MPEG-2                                  21.221                  35,855                  95,110,861      517,262         

[/code]
<---- END FORUMS PASTE ---->

QUICK SUMMARY:

Disc Title: Disc 1
Disc Size: 46,110,331,221 bytes
Protection: AACS
BD-Java: No
Playlist: 00001.MPLS
Size: 99,483,648 bytes
Length: 0:00:21.254
Total Bitrate: 37.44 Mbps
Video: MPEG-2 Video / 35799 kbps / 480i / 29.970 fps / 16:9




Create a new paste based on this one


Comments: