[ create a new paste ] login | about

Link: http://codepad.org/utrUnMAS    [ raw code | fork ]

Plain Text, pasted on Mar 14:
Exact Audio Copy V1.1 from 23. June 2015

EAC extraction logfile from 25. February 2016, 8:34

Grateful Dead / Fare Thee Well 7-4-15 (CD3)

Used drive  : PIONEER BD-RW   BDR-XD04   Adapter: 1  ID: 0

Read mode               : Secure
Utilize accurate stream : Yes
Defeat audio cache      : Yes
Make use of C2 pointers : No

Read offset correction                      : 667
Overread into Lead-In and Lead-Out          : No
Fill up missing offset samples with silence : Yes
Delete leading and trailing silent blocks   : No
Null samples used in CRC calculations       : Yes
Used interface                              : Native Win32 interface for Win NT & 2000

Used output format              : User Defined Encoder
Selected bitrate                : 768 kBit/s
Quality                         : High
Add ID3 tag                     : No
Command line compressor         : C:\Program Files (x86)\Exact Audio Copy\Wavpack\wavpack.exe
Additional command line options : -hm -w "Year=%year%" -w "Genre=%genre%" %source% %dest%


TOC of the extracted CD

     Track |   Start  |  Length  | Start sector | End sector 
    ---------------------------------------------------------
        1  |  0:00.00 |  9:27.46 |         0    |    42570   
        2  |  9:27.46 | 14:14.73 |     42571    |   106693   
        3  | 23:42.44 |  8:20.53 |    106694    |   144246   
        4  | 32:03.22 | 11:49.52 |    144247    |   197473   
        5  | 43:52.74 |  7:44.54 |    197474    |   232327   
        6  | 51:37.53 | 11:28.05 |    232328    |   283932   


Range status and errors

Selected range

     Filename D:\_NL+_\_CD\Grateful Dead - Fare Thee Well 7-4-15 (CD3).wav

     Peak level 97.7 %
     Extraction speed 4.8 X
     Range quality 99.9 %
     Test CRC 4697040F
     Copy CRC 4697040F
     Copy OK

No errors occurred

 
AccurateRip summary
 
Track  1  not present in database
Track  2  not present in database
Track  3  not present in database
Track  4  not present in database
Track  5  not present in database
Track  6  not present in database
 
None of the tracks are present in the AccurateRip database

End of status report

---- CUETools DB Plugin V2.1.6

[CTDB TOCID: YOblYB1B0HdQu1Io1gPjquI4skA-] found
Submit result: YOblYB1B0HdQu1Io1gPjquI4skA- has been confirmed
Track | CTDB Status
  1   | (19/20) Accurately ripped
  2   | (19/20) Accurately ripped
  3   | (19/20) Accurately ripped
  4   | (19/20) Accurately ripped
  5   | (19/20) Accurately ripped
  6   | (19/20) Accurately ripped


==== Log checksum 30071798670E55491D8BDB4D62E54D87F9420CD592984D4FC1310073F5EC7655 ====



Create a new paste based on this one


Comments: