[ create a new paste ] login | about

Link: http://codepad.org/v0M5vbhS    [ raw code | fork ]

Plain Text, pasted on Dec 11:
foobar2000 1.4.1 / Dynamic Range Meter 1.1.1
log date: 2018-12-11 06:45:42

--------------------------------------------------------------------------------
Analyzed: Paul McCartney & Wings / Red Rose Speedway (Special Edition)
--------------------------------------------------------------------------------

DR         Peak         RMS     Duration Track
--------------------------------------------------------------------------------
DR11      -0.40 dB   -14.49 dB      3:50 01-Big Barn Bed (2018 Remaster)
DR11      -0.40 dB   -15.24 dB      4:08 02-My Love (2018 Remaster)
DR11      -1.07 dB   -13.76 dB      4:17 03-Get On The Right Thing (2018 Remaster)
DR12      -1.47 dB   -15.16 dB      2:30 04-One More Kiss (2018 Remaster)
DR11      -1.03 dB   -14.99 dB      6:24 05-Little Lamb Dragonfly (2018 Remaster)
DR11      -1.90 dB   -17.23 dB      1:53 06-Single Pigeon (2018 Remaster)
DR13      -0.47 dB   -16.92 dB      3:38 07-When The Night (2018 Remaster)
DR12      -0.47 dB   -15.69 dB      4:24 08-Loup (1st Indian On The Moon) (2018 Remaster)
DR11      -0.40 dB   -14.62 dB     11:21 09-Medley: Hold Me Tight/Lazy Dynamite/Hands Of Love/Power Cut (2018 Remaster)
DR11      -2.78 dB   -16.64 dB      3:35 10-Mary Had A Little Lamb (2018 Remaster)
DR10      -3.70 dB   -15.68 dB      2:09 11-Little Woman Love (2018 Remaster)
DR9       -3.90 dB   -15.15 dB      3:11 12-Hi, Hi, Hi (2018 Remaster)
DR10      -4.40 dB   -16.20 dB      4:36 13-C Moon (2018 Remaster)
DR11      -0.48 dB   -14.32 dB      4:34 14-The Mess (Live At The Hague/1972)
DR10      -2.40 dB   -16.07 dB      3:15 15-Live And Let Die (2018 Remaster)
DR10      -1.10 dB   -14.91 dB      5:02 16-I Lie Around (2018 Remaster)
DR9       -1.47 dB   -12.03 dB      2:17 17-Night Out (2018 Remaster)
DR12      -0.47 dB   -14.61 dB      3:10 18-Country Dreamer (2018 Remaster)
DR13      -0.71 dB   -16.30 dB      3:58 19-Seaside Woman (2018 Remaster)
DR11      -0.97 dB   -13.72 dB      4:00 20-Best Friend (Live In Antwerp/1972)
DR13      -0.47 dB   -18.61 dB      3:46 21-Mama's Little Girl
DR12      -1.47 dB   -14.87 dB      3:24 22-I Would Only Smile
DR11      -1.51 dB   -16.07 dB      3:21 23-Tragedy
DR12      -0.65 dB   -15.72 dB      3:21 24-Thank You Darling
DR12      -0.40 dB   -15.28 dB      6:33 25-1882 (Live In Berlin/1972)
DR13      -0.56 dB   -16.22 dB      5:10 26-Jazz Street
DR9       -3.54 dB   -14.58 dB      3:33 27-Live And Let Die (Group Only/Take 10)
--------------------------------------------------------------------------------

Number of tracks:  27
Official DR value: DR11

Samplerate:        96000 Hz
Channels:          2
Bits per sample:   24
Bitrate:           2870 kbps
Codec:             FLAC
================================================================================




Create a new paste based on this one


Comments: