[ create a new paste ] login | about

Link: http://codepad.org/v158kb2n    [ raw code | fork ]

Plain Text, pasted on Nov 30:
foobar2000 1.3.17 / Dynamic Range Meter 1.1.1
log date: 2018-11-30 09:29:46

--------------------------------------------------------------------------------
Analyzed: Mark Knopfler / Down The Road Wherever
--------------------------------------------------------------------------------

DR         Peak         RMS     Duration Track
--------------------------------------------------------------------------------
DR11      -1.42 dB   -14.46 dB      5:56 01-Trapper Man
DR12      -0.46 dB   -14.45 dB      5:31 02-Back On The Dance Floor
DR10      -2.99 dB   -16.83 dB      4:16 03-Nobody's Child
DR13      -0.44 dB   -15.17 dB      5:15 04-Nobody Does That
DR12      -0.45 dB   -14.32 dB      5:38 05-Good On You Son
DR11      -0.69 dB   -16.23 dB      5:02 06-Floating Away
DR12      -0.34 dB   -14.75 dB      6:17 07-One Song At A Time
DR13      -1.27 dB   -15.60 dB      6:00 08-Heavy Up
DR12      -0.71 dB   -15.28 dB      4:35 09-Slow Learner
DR12      -0.13 dB   -14.57 dB      5:12 10-Just A Boy Away From Home
DR11      -0.77 dB   -15.52 dB      5:36 11-My Bacon Roll
DR13      -1.53 dB   -18.12 dB      4:13 12-When You Leave
DR12      -3.91 dB   -18.59 dB      2:56 13-Matchstick Man
--------------------------------------------------------------------------------

Number of tracks:  13
Official DR value: DR12

Samplerate:        44100 Hz
Channels:          2
Bits per sample:   16
Bitrate:           714 kbps
Codec:             FLAC
================================================================================




Create a new paste based on this one


Comments: