[ create a new paste ] login | about

Link: http://codepad.org/v3MMljE5    [ raw code | fork ]

Plain Text, pasted on Mar 3:
foobar2000 1.5 / Dynamic Range Meter 1.1.1
log date: 2020-03-03 19:12:55

--------------------------------------------------------------------------------
Analyzed: Kim Carnes / Mistaken Identity
--------------------------------------------------------------------------------

DR         Peak         RMS     Duration Track
--------------------------------------------------------------------------------
DR15      -0.02 dB   -17.05 dB      3:46 01-Bette Davis Eyes
DR13      -1.03 dB   -15.65 dB      3:17 02-Hit And Run
DR13      -8.91 dB   -24.45 dB      4:46 03-Mistaken Indentity
DR13      -1.88 dB   -17.08 dB      3:34 04-When I'm Away From You
DR14      -1.14 dB   -18.43 dB      4:52 05-Draw Of The Cards
DR12      -0.19 dB   -14.12 dB      3:15 06-Break The Rules Tonite (Out Of School)
DR14      -0.47 dB   -17.04 dB      4:37 07-Still Hold On
DR13      -0.06 dB   -16.04 dB      3:07 08-Don't Call It Love
DR14      -0.90 dB   -18.92 dB      5:11 09-Miss You Tonite
DR11      -3.50 dB   -19.39 dB      3:16 10-My Old Pals
--------------------------------------------------------------------------------

Number of tracks:  10
Official DR value: DR13

Samplerate:        44100 Hz
Channels:          2
Bits per sample:   16
Bitrate:           718 kbps
Codec:             FLAC
================================================================================




Create a new paste based on this one


Comments: