[ create a new paste ] login | about

Link: http://codepad.org/v3SGCNay    [ raw code | fork ]

Plain Text, pasted on Apr 6:
Exact Audio Copy V1.1 from 23. June 2015

EAC extraction logfile from 14. March 2017, 20:50

Various Artists (Priester) / Grand 12-Inches Vol.15

Used drive  : HL-DT-STDVDRAM GH24NS90   Adapter: 1  ID: 0

Read mode               : Secure
Utilize accurate stream : Yes
Defeat audio cache      : Yes
Make use of C2 pointers : No

Read offset correction                      : 6
Overread into Lead-In and Lead-Out          : No
Fill up missing offset samples with silence : Yes
Delete leading and trailing silent blocks   : No
Null samples used in CRC calculations       : Yes
Used interface                              : Native Win32 interface for Win NT & 2000
Gap handling                                : Appended to previous track

Used output format              : User Defined Encoder
Selected bitrate                : 1024 kBit/s
Quality                         : High
Add ID3 tag                     : No
Command line compressor         : C:\Program Files (x86)\Exact Audio Copy\Flac\flac.exe
Additional command line options : -8 -e -V -T "ARTIST=%artist%" -T "TITLE=%title%" -T "ALBUM=%albumtitle%" -T "DATE=%year%" -T "TRACKNUMBER=%tracknr%" -T "GENRE=%genre%" -T "PERFORMER=%albuminterpret%" -T "COMPOSER=%composer%" %haslyrics%--tag-from-file=LYRICS="%lyricsfile%"%haslyrics% -T "ALBUMARTIST=%albumartist%" -T "DISCNUMBER=%cdnumber%" -T "TOTALDISCS=%totalcds%" -T "TOTALTRACKS=%numtracks%" -T "COMMENT=%comment%" %source% -o %dest%


TOC of the extracted CD

     Track |   Start  |  Length  | Start sector | End sector 
    ---------------------------------------------------------
        1  |  0:00.00 |  7:56.00 |         0    |    35699   
        2  |  7:56.00 |  7:12.21 |     35700    |    68120   
        3  | 15:08.21 |  6:27.60 |     68121    |    97205   
        4  | 21:36.06 |  6:55.71 |     97206    |   128401   
        5  | 28:32.02 |  6:52.04 |    128402    |   159305   
        6  | 35:24.06 | 10:16.46 |    159306    |   205551   
        7  | 45:40.52 |  8:58.00 |    205552    |   245901   
        8  | 54:38.52 |  5:28.00 |    245902    |   270501   
        9  | 60:06.52 |  7:27.43 |    270502    |   304069   
       10  | 67:34.20 |  8:55.39 |    304070    |   344233   


Track  1

     Filename D:\Mijn Documenten\Bureaublad\Grand 12 inches 15 (flac)\cd3\01 - Kiss - I Was Made For Lovin' You (Original 12'' Single).wav

     Pre-gap length  0:00:02.00

     Peak level 98.8 %
     Extraction speed 1.3 X
     Track quality 100.0 %
     Test CRC CC527CAC
     Copy CRC CC527CAC
     Accurately ripped (confidence 2)  [41826B2F]  (AR v2)
     Copy OK

Track  2

     Filename D:\Mijn Documenten\Bureaublad\Grand 12 inches 15 (flac)\cd3\02 - Afrika Bambaataa & Family Feat. UB40 - Reckless (12'' Vocal Wildstyle Mix).wav

     Pre-gap length  0:00:02.00

     Peak level 98.8 %
     Extraction speed 1.5 X
     Track quality 100.0 %
     Test CRC 938CC530
     Copy CRC 938CC530
     Accurately ripped (confidence 2)  [E4C967EA]  (AR v2)
     Copy OK

Track  3

     Filename D:\Mijn Documenten\Bureaublad\Grand 12 inches 15 (flac)\cd3\03 - Zinno - What's Your Name (Long Version).wav

     Pre-gap length  0:00:02.00

     Peak level 98.8 %
     Extraction speed 1.7 X
     Track quality 100.0 %
     Test CRC E99731EA
     Copy CRC E99731EA
     Accurately ripped (confidence 2)  [7871A60B]  (AR v2)
     Copy OK

Track  4

     Filename D:\Mijn Documenten\Bureaublad\Grand 12 inches 15 (flac)\cd3\04 - Wham! - Young Guns (Go For It) (Extended Dance Mix).wav

     Pre-gap length  0:00:02.00

     Peak level 98.8 %
     Extraction speed 1.8 X
     Track quality 100.0 %
     Test CRC 18FCF440
     Copy CRC 18FCF440
     Accurately ripped (confidence 2)  [6BAC55E4]  (AR v2)
     Copy OK

Track  5

     Filename D:\Mijn Documenten\Bureaublad\Grand 12 inches 15 (flac)\cd3\05 - Jeff Lorber Feat. Karyn White - Facts Of Love (12'' Actuality Mix).wav

     Pre-gap length  0:00:02.00

     Peak level 98.8 %
     Extraction speed 2.0 X
     Track quality 100.0 %
     Test CRC 7ECD11E6
     Copy CRC 7ECD11E6
     Accurately ripped (confidence 2)  [079DB357]  (AR v2)
     Copy OK

Track  6

     Filename D:\Mijn Documenten\Bureaublad\Grand 12 inches 15 (flac)\cd3\06 - Revanche - Music Man (Original 12'' Vocal Version).wav

     Pre-gap length  0:00:02.00

     Peak level 98.8 %
     Extraction speed 2.2 X
     Track quality 100.0 %
     Test CRC 47A0B1E8
     Copy CRC 47A0B1E8
     Accurately ripped (confidence 2)  [DD1AAD4A]  (AR v2)
     Copy OK

Track  7

     Filename D:\Mijn Documenten\Bureaublad\Grand 12 inches 15 (flac)\cd3\07 - Natasha King - AM-FM (Rap) (12'' Special Dance Remix By Ben Liebrand).wav

     Pre-gap length  0:00:02.00

     Peak level 98.8 %
     Extraction speed 2.4 X
     Track quality 100.0 %
     Test CRC 6386D5D1
     Copy CRC 6386D5D1
     Accurately ripped (confidence 2)  [1CE43178]  (AR v2)
     Copy OK

Track  8

     Filename D:\Mijn Documenten\Bureaublad\Grand 12 inches 15 (flac)\cd3\08 - Sinnamon - I Need You Now (12'' Version).wav

     Pre-gap length  0:00:02.00

     Peak level 98.8 %
     Extraction speed 2.1 X
     Track quality 99.9 %
     Test CRC 2C781800
     Copy CRC 2C781800
     Accurately ripped (confidence 2)  [686DC192]  (AR v2)
     Copy OK

Track  9

     Filename D:\Mijn Documenten\Bureaublad\Grand 12 inches 15 (flac)\cd3\09 - Divine Sounds - What People Do For Money (12'' Version).wav

     Pre-gap length  0:00:02.00

     Peak level 98.8 %
     Extraction speed 2.5 X
     Track quality 100.0 %
     Test CRC 851A9931
     Copy CRC 851A9931
     Accurately ripped (confidence 2)  [00CE5485]  (AR v2)
     Copy OK

Track 10

     Filename D:\Mijn Documenten\Bureaublad\Grand 12 inches 15 (flac)\cd3\10 - The Salaoul Orchestra Feat. Loleatta Holloway - Seconds (A Shep Pettibone Mix) (12'' Special Club Version).wav

     Pre-gap length  0:00:02.00

     Peak level 98.8 %
     Extraction speed 2.5 X
     Track quality 99.9 %
     Test CRC DB4A1282
     Copy CRC DB4A1282
     Accurately ripped (confidence 2)  [ABB6AD7D]  (AR v2)
     Copy OK


All tracks accurately ripped

No errors occurred

End of status report

---- CUETools DB Plugin V2.1.6

[CTDB TOCID: eadvqpcr5Zn5_7XIz5CQQ4PYxoo-] found
Submit result: eadvqpcr5Zn5_7XIz5CQQ4PYxoo- has been confirmed
Track | CTDB Status
  1   | (9/9) Accurately ripped
  2   | (9/9) Accurately ripped
  3   | (9/9) Accurately ripped
  4   | (9/9) Accurately ripped
  5   | (9/9) Accurately ripped
  6   | (9/9) Accurately ripped
  7   | (9/9) Accurately ripped
  8   | (9/9) Accurately ripped
  9   | (9/9) Accurately ripped
 10   | (9/9) Accurately ripped


==== Log checksum 402226615EE4611CCE4D8F05BB5B152D6C7C0C27BCC5D0C35A746B07D9E300FD ====



Create a new paste based on this one


Comments: