[ create a new paste ] login | about

Link: http://codepad.org/v6KlPxdr    [ raw code | fork ]

Plain Text, pasted on Nov 2:
Exact Audio Copy V1.1 from 23. June 2015

EAC extraction logfile from 22. October 2016, 18:59

Lou Reed / The Blue Mask

Used drive  : PLEXTOR BD-R  PX-B950SA   Adapter: 1  ID: 1

Read mode               : Secure
Utilize accurate stream : Yes
Defeat audio cache      : Yes
Make use of C2 pointers : No

Read offset correction                      : 6
Overread into Lead-In and Lead-Out          : No
Fill up missing offset samples with silence : Yes
Delete leading and trailing silent blocks   : No
Null samples used in CRC calculations       : Yes
Used interface                              : Native Win32 interface for Win NT & 2000

Used output format : Internal WAV Routines
Sample format      : 44.100 Hz; 16 Bit; Stereo


TOC of the extracted CD

     Track |   Start  |  Length  | Start sector | End sector 
    ---------------------------------------------------------
        1  |  0:00.00 |  5:25.35 |         0    |    24409   
        2  |  5:25.35 |  4:58.05 |     24410    |    46764   
        3  | 10:23.40 |  2:33.49 |     46765    |    58288   
        4  | 12:57.14 |  3:41.12 |     58289    |    74875   
        5  | 16:38.26 |  5:06.32 |     74876    |    97857   
        6  | 21:44.58 |  3:13.21 |     97858    |   112353   
        7  | 24:58.04 |  3:05.43 |    112354    |   126271   
        8  | 28:03.47 |  4:11.02 |    126272    |   145098   
        9  | 32:14.49 |  4:08.28 |    145099    |   163726   
       10  | 36:23.02 |  4:47.47 |    163727    |   185298   


Range status and errors

Selected range

     Filename C:\Lou Reed\2016 RCA & Arista Album Collection (17CD Box Set Sony Music)\1982 The Blue Mask\Lou Reed - The Blue Mask.wav

     Peak level 97.0 %
     Extraction speed 6.7 X
     Range quality 100.0 %
     Test CRC 4739CD7B
     Copy CRC 4739CD7B
     Copy OK

No errors occurred

 
AccurateRip summary
 
Track  1  not present in database
Track  2  not present in database
Track  3  not present in database
Track  4  not present in database
Track  5  not present in database
Track  6  not present in database
Track  7  not present in database
Track  8  not present in database
Track  9  not present in database
Track 10  not present in database
 
None of the tracks are present in the AccurateRip database

End of status report

---- CUETools DB Plugin V2.1.6

[CTDB TOCID: w.mKYBVrryqiXB9E8XWYh4RRcPo-] found
Submit result: w.mKYBVrryqiXB9E8XWYh4RRcPo- has been confirmed
Track | CTDB Status
  1   | (4/4) Accurately ripped
  2   | (4/4) Accurately ripped
  3   | (4/4) Accurately ripped
  4   | (4/4) Accurately ripped
  5   | (4/4) Accurately ripped
  6   | (4/4) Accurately ripped
  7   | (4/4) Accurately ripped
  8   | (4/4) Accurately ripped
  9   | (4/4) Accurately ripped
 10   | (4/4) Accurately ripped


==== Log checksum AD6C6E11E9E0EE54C1C3284A4985619EE8F23228F595F3DFF3EF30BBDE73DA83 ====



Create a new paste based on this one


Comments: