[ create a new paste ] login | about

Link: http://codepad.org/v8Baz5d8    [ raw code | fork ]

Plain Text, pasted on Aug 1:
[CUETools log; Date: 8/1/2019 11:45:30 AM; Version: 2.1.5]
CD-Extra data track length 23:23:64.
[CTDB TOCID: FaaiX3JdSYw6AkhEveTt_Rb6tFs-] found.
Track | CTDB Status
  1   | (2916/2956) Accurately ripped
  2   | (2917/2956) Accurately ripped
  3   | (2915/2956) Accurately ripped
  4   | (2917/2956) Accurately ripped
  5   | (2911/2956) Accurately ripped
  6   | (2912/2956) Accurately ripped, or (1/2956) differs in 17 samples @02:17:29,02:17:55,02:18:32
  7   | (2913/2956) Accurately ripped, or (1/2956) differs in 482 samples @00:01:50,00:07:17,00:09:62,00:15:29,00:21:63,00:38:19-00:38:20,00:43:25-00:43:26,00:56:39,00:58:21,00:58:47,00:59:12,00:59:25,01:01:06-01:01:07,01:03:15,01:04:45-01:04:46,01:09:28-01:09:29,01:10:32-01:10:33,01:14:50,01:17:37,01:20:25,01:21:29-01:21:30,01:22:07-01:22:08,01:24:56-01:24:57,01:24:70-01:24:71,01:27:04,01:27:31-01:27:32,01:30:19,01:35:70,01:36:62,01:38:71-01:38:72,01:39:50,01:52:37,02:15:56,02:19:11-02:19:12,02:20:31,02:21:50,02:23:49,02:24:68,02:40:03
  8   | (2915/2956) Accurately ripped
  9   | (2915/2956) Accurately ripped
 10   | (2911/2956) Accurately ripped
 11   | (2911/2956) Accurately ripped
 12   | (2909/2956) Accurately ripped
 13   | (2913/2956) Accurately ripped
 14   | (2913/2956) Accurately ripped
[AccurateRip ID: 00131c7d-00d3dfe3-d80e060f] found.
Track   [  CRC   |   V2   ] Status
 01     [38d15248|96935260] (200+200/1033) Accurately ripped
 02     [97bd127f|8e91f619] (200+200/1035) Accurately ripped
 03     [13f1ca1f|d11bc077] (200+200/1035) Accurately ripped
 04     [857de9a7|8971e7fc] (200+200/1037) Accurately ripped
 05     [2d041fdd|5e8f25d8] (200+200/1034) Accurately ripped
 06     [d6fa9ac6|7914080e] (200+200/1036) Accurately ripped
 07     [4c94b3bc|f2198c6c] (200+200/1035) Accurately ripped
 08     [34d9829d|3c953101] (200+200/1036) Accurately ripped
 09     [3ff685ce|8c912a02] (200+200/1033) Accurately ripped
 10     [6006820b|dd97cfcd] (200+200/1039) Accurately ripped
 11     [d714d26c|444bd6e0] (200+200/1037) Accurately ripped
 12     [19c53790|dc86c885] (200+200/1034) Accurately ripped
 13     [e4d94d6c|dddff7d3] (200+200/1034) Accurately ripped
 14     [83226819|55b5af4e] (200+200/1030) Accurately ripped
Offsetted by -706:
 01     [993e0102] (002/1033) Accurately ripped
 02     [02b820bb] (002/1035) Accurately ripped
 03     [dd2d3dee] (002/1035) Accurately ripped
 04     [98e374f7] (002/1037) Accurately ripped
 05     [b2bbebd2] (002/1034) Accurately ripped
 06     [752f254f] (002/1036) Accurately ripped
 07     [35f4421d] (002/1035) Accurately ripped
 08     [428d855a] (002/1036) Accurately ripped
 09     [0ac46dbe] (002/1033) Accurately ripped
 10     [7336e923] (002/1039) Accurately ripped
 11     [b928ddac] (002/1037) Accurately ripped
 12     [7a7d7ac5] (002/1034) Accurately ripped
 13     [64b8205f] (002/1034) Accurately ripped
 14     [31fd4bcc] (002/1030) Accurately ripped
Offsetted by -694:
 01     [bf152b82] (004/1033) Accurately ripped
 02     [93e18065] (004/1035) Accurately ripped
 03     [d457fd7e] (004/1035) Accurately ripped
 04     [fca391c4] (004/1037) Accurately ripped
 05     [10b3a63b] (004/1034) Accurately ripped
 06     [49ec21e3] (004/1036) Accurately ripped
 07     [757a0148] (004/1035) Accurately ripped
 08     [68db3d14] (004/1036) Accurately ripped
 09     [ad2ce42f] (004/1033) Accurately ripped
 10     [a0f26742] (004/1039) Accurately ripped
 11     [d31801c8] (004/1037) Accurately ripped
 12     [1c615e19] (004/1034) Accurately ripped
 13     [c3ebaf6c] (004/1034) Accurately ripped
 14     [7f44047a] (004/1030) Accurately ripped
Offsetted by -664:
 01     [4d422bf1] (002/1033) Accurately ripped
 02     [95f00fc2] (002/1035) Accurately ripped
 03     [c8b68aae] (002/1035) Accurately ripped
 04     [35e012d5] (002/1037) Accurately ripped
 05     [9f83ce06] (002/1034) Accurately ripped
 06     [d990b032] (002/1036) Accurately ripped
 07     [5275acce] (002/1035) Accurately ripped
 08     [eb842b70] (002/1036) Accurately ripped
 09     [840a9a46] (002/1033) Accurately ripped
 10     [fa89b1fd] (002/1039) Accurately ripped
 11     [2c03aac7] (002/1037) Accurately ripped
 12     [fc81c1c4] (002/1034) Accurately ripped
 13     [208b1b76] (002/1034) Accurately ripped
 14     [bc3ecb37] (002/1030) Accurately ripped
Offsetted by -640:
 01     [61e6ad0c] (012/1033) Accurately ripped
 02     [d950b49c] (012/1035) Accurately ripped
 03     [4061a98a] (012/1035) Accurately ripped
 04     [79034449] (012/1037) Accurately ripped
 05     [194c0e0a] (012/1034) Accurately ripped
 06     [2ed502e6] (012/1036) Accurately ripped
 07     [6f541cd7] (012/1035) Accurately ripped
 08     [dbd07c22] (012/1036) Accurately ripped
 09     [fcbdf63d] (012/1033) Accurately ripped
 10     [bb302ad3] (012/1039) Accurately ripped
 11     [dd6fa3cb] (012/1037) Accurately ripped
 12     [0b24722e] (012/1034) Accurately ripped
 13     [37ab339e] (012/1034) Accurately ripped
 14     [501e2d4c] (012/1030) Accurately ripped
Offsetted by -216:
 01     [6bb39498] (004/1033) Accurately ripped
 02     [4f6fd26d] (003/1035) Accurately ripped
 03     [82fc4f5b] (004/1035) Accurately ripped
 04     [04efddf6] (004/1037) Accurately ripped
 05     [9a5e277f] (004/1034) Accurately ripped
 06     [e73c19da] (004/1036) Accurately ripped
 07     [5c5ef400] (004/1035) Accurately ripped
 08     [f40e8a76] (004/1036) Accurately ripped
 09     [f2f8b6da] (004/1033) Accurately ripped
 10     [90e8688e] (004/1039) Accurately ripped
 11     [d5bde90d] (004/1037) Accurately ripped
 12     [185f9712] (004/1034) Accurately ripped
 13     [b580d929] (004/1034) Accurately ripped
 14     [476ccd6e] (004/1030) Accurately ripped
Offsetted by -30:
 01     [d16a06a3] (006/1033) Accurately ripped
 02     [57a0d725] (006/1035) Accurately ripped
 03     [d1d892e1] (006/1035) Accurately ripped
 04     [af737efa] (006/1037) Accurately ripped
 05     [1c89949e] (006/1034) Accurately ripped
 06     [bd89f2b5] (006/1036) Accurately ripped
 07     [2f5a1d97] (006/1035) Accurately ripped
 08     [cb7a7c3a] (006/1036) Accurately ripped
 09     [c5e0a395] (007/1033) Accurately ripped
 10     [f889a16e] (007/1039) Accurately ripped
 11     [0209fdc0] (007/1037) Accurately ripped
 12     [1b7ab6bd] (007/1034) Accurately ripped
 13     [f08b0222] (007/1034) Accurately ripped
 14     [c21495de] (007/1030) Accurately ripped
Offsetted by -6:
 01     [8fd2ad07] (002/1033) Accurately ripped
 02     [fdbf5b6a] (002/1035) Accurately ripped
 03     [24257f85] (002/1035) Accurately ripped
 04     [a3aabf63] (002/1037) Accurately ripped
 05     [2f8d92cf] (002/1034) Accurately ripped
 06     [cddea41f] (002/1036) Accurately ripped
 07     [65aab933] (002/1035) Accurately ripped
 08     [5c73493d] (002/1036) Accurately ripped
 09     [938fbf55] (002/1033) Accurately ripped
 10     [ae933e73] (002/1039) Accurately ripped
 11     [7cc70a9f] (002/1037) Accurately ripped
 12     [43fc7ba2] (002/1034) Accurately ripped
 13     [af13319d] (002/1034) Accurately ripped
 14     [c28c0a7e] (002/1030) Accurately ripped
Offsetted by 6:
 01     [cb2a0e9b] (200/1033) Accurately ripped
 02     [24620adf] (200/1035) Accurately ripped
 03     [d13e2bf3] (200/1035) Accurately ripped
 04     [dc8e267a] (200/1037) Accurately ripped
 05     [88472b7c] (200/1034) Accurately ripped
 06     [2edda3bf] (200/1036) Accurately ripped
 07     [c3137d30] (200/1035) Accurately ripped
 08     [0a636b1a] (200/1036) Accurately ripped
 09     [0fe8c631] (200/1033) Accurately ripped
 10     [eeef31c5] (200/1039) Accurately ripped
 11     [528667c2] (200/1037) Accurately ripped
 12     [5b1c65b7] (200/1034) Accurately ripped
 13     [0e167a18] (200/1034) Accurately ripped
 14     [43eec5d4] (200/1030) Accurately ripped
Offsetted by -837:
 01     [f7c69cfc] (002/1033) Accurately ripped
 02     [5fe1d9c7] (003/1035) Accurately ripped
 03     [f9cbc11b] (003/1035) Accurately ripped
 04     [9a64dcf4] (003/1037) Accurately ripped
 05     [8cf89293] (003/1034) Accurately ripped
 06     [505f5148] (003/1036) Accurately ripped
 07     [75581eef] (003/1035) Accurately ripped
 08     [de327606] (002/1036) Accurately ripped
 09     [fe9edcfa] (002/1033) Accurately ripped
 10     [5bdd4aaf] (003/1039) Accurately ripped
 11     [e6c6de2f] (002/1037) Accurately ripped
 12     [80e833d1] (002/1034) Accurately ripped
 13     [a8369674] (003/1034) Accurately ripped
 14     [8d4ffe40] (000/1030) No match (V2 was not tested)
Offsetted by -667:
 01     [646fc48f] (000/1033) No match (V2 was not tested)
 02     [09977cff] (000/1035) No match (V2 was not tested)
 03     [4556033a] (000/1035) No match (V2 was not tested)
 04     [5349008b] (000/1037) No match (V2 was not tested)
 05     [f15b8acc] (000/1034) No match (V2 was not tested)
 06     [e493147d] (000/1036) No match (V2 was not tested)
 07     [0e9281a6] (000/1035) No match (V2 was not tested)
 08     [daa68992] (000/1036) No match (V2 was not tested)
 09     [d24a427b] (000/1033) No match (V2 was not tested)
 10     [ca2b248b] (000/1039) No match (V2 was not tested)
 11     [6be7f1be] (000/1037) No match (V2 was not tested)
 12     [940faa6f] (000/1034) No match (V2 was not tested)
 13     [fa664130] (000/1034) No match (V2 was not tested)
 14     [e99d1e4c] (000/1030) No match (V2 was not tested)
Offsetted by -132:
 01     [dead54b8] (000/1033) No match (V2 was not tested)
 02     [d74dea5e] (000/1035) No match (V2 was not tested)
 03     [e72eebe6] (000/1035) No match (V2 was not tested)
 04     [b37c8876] (000/1037) No match (V2 was not tested)
 05     [4d244976] (000/1034) No match (V2 was not tested)
 06     [d4999693] (000/1036) No match (V2 was not tested)
 07     [3ea42f60] (000/1035) No match (V2 was not tested)
 08     [7ad0bf5d] (000/1036) No match (V2 was not tested)
 09     [2d4f42ad] (000/1033) No match (V2 was not tested)
 10     [a05ec883] (000/1039) No match (V2 was not tested)
 11     [fa2bca64] (000/1037) No match (V2 was not tested)
 12     [90f23506] (000/1034) No match (V2 was not tested)
 13     [24ab3dd3] (000/1034) No match (V2 was not tested)
 14     [39118e96] (000/1030) No match (V2 was not tested)
Offsetted by -96:
 01     [c1416d3f] (000/1033) No match (V2 was not tested)
 02     [673421c3] (000/1035) No match (V2 was not tested)
 03     [e45f8e11] (000/1035) No match (V2 was not tested)
 04     [19e2603a] (000/1037) No match (V2 was not tested)
 05     [90924fbf] (000/1034) No match (V2 was not tested)
 06     [39f289f7] (000/1036) No match (V2 was not tested)
 07     [9c4aedd5] (000/1035) No match (V2 was not tested)
 08     [66e9bb24] (000/1036) No match (V2 was not tested)
 09     [1b2b32a5] (000/1033) No match (V2 was not tested)
 10     [877869ab] (000/1039) No match (V2 was not tested)
 11     [f830dd1c] (000/1037) No match (V2 was not tested)
 12     [6368dd49] (000/1034) No match (V2 was not tested)
 13     [084fc8a8] (000/1034) No match (V2 was not tested)
 14     [98c0a66a] (000/1030) No match (V2 was not tested)
Offsetted by -78:
 01     [a1425784] (000/1033) No match (V2 was not tested)
 02     [f69ee12d] (000/1035) No match (V2 was not tested)
 03     [cbffa276] (000/1035) No match (V2 was not tested)
 04     [321a9c41] (000/1037) No match (V2 was not tested)
 05     [6b8dc130] (000/1034) No match (V2 was not tested)
 06     [00364382] (000/1036) No match (V2 was not tested)
 07     [1440c4e8] (000/1035) No match (V2 was not tested)
 08     [ff17ed1a] (000/1036) No match (V2 was not tested)
 09     [2fd7106c] (000/1033) No match (V2 was not tested)
 10     [a3ad2e4a] (000/1039) No match (V2 was not tested)
 11     [1c540abb] (000/1037) No match (V2 was not tested)
 12     [b055d5be] (000/1034) No match (V2 was not tested)
 13     [155f8ff0] (000/1034) No match (V2 was not tested)
 14     [ce6eb650] (000/1030) No match (V2 was not tested)
Offsetted by -48:
 01     [3bb5eafd] (000/1033) No match (V2 was not tested)
 02     [df61d68e] (000/1035) No match (V2 was not tested)
 03     [e7b9b632] (000/1035) No match (V2 was not tested)
 04     [dcc72aae] (000/1037) No match (V2 was not tested)
 05     [bbe95cdb] (000/1034) No match (V2 was not tested)
 06     [99ea597b] (000/1036) No match (V2 was not tested)
 07     [2ab4b8cc] (000/1035) No match (V2 was not tested)
 08     [d6429ece] (000/1036) No match (V2 was not tested)
 09     [44c9345c] (000/1033) No match (V2 was not tested)
 10     [bc253fac] (000/1039) No match (V2 was not tested)
 11     [d4b52408] (000/1037) No match (V2 was not tested)
 12     [4801cacb] (000/1034) No match (V2 was not tested)
 13     [9adbaf56] (000/1034) No match (V2 was not tested)
 14     [84597ff3] (000/1030) No match (V2 was not tested)
Offsetted by -42:
 01     [faf3053f] (000/1033) No match (V2 was not tested)
 02     [798a2206] (000/1035) No match (V2 was not tested)
 03     [1b328d82] (000/1035) No match (V2 was not tested)
 04     [eeb502d7] (000/1037) No match (V2 was not tested)
 05     [4969b25b] (000/1034) No match (V2 was not tested)
 06     [afe70d06] (000/1036) No match (V2 was not tested)
 07     [0799ffee] (000/1035) No match (V2 was not tested)
 08     [e472c88b] (000/1036) No match (V2 was not tested)
 09     [46868226] (000/1033) No match (V2 was not tested)
 10     [57e18b25] (000/1039) No match (V2 was not tested)
 11     [d9ef47d2] (000/1037) No match (V2 was not tested)
 12     [3fe0bbc6] (000/1034) No match (V2 was not tested)
 13     [3130eac2] (000/1034) No match (V2 was not tested)
 14     [434cdc72] (000/1030) No match (V2 was not tested)
Offsetted by -12:
 01     [8ff93ceb] (000/1033) No match (V2 was not tested)
 02     [26ceb816] (000/1035) No match (V2 was not tested)
 03     [f261c603] (000/1035) No match (V2 was not tested)
 04     [ec6a4d9c] (000/1037) No match (V2 was not tested)
 05     [a416295b] (000/1034) No match (V2 was not tested)
 06     [96f22088] (000/1036) No match (V2 was not tested)
 07     [ec061b27] (000/1035) No match (V2 was not tested)
 08     [882721c2] (000/1036) No match (V2 was not tested)
 09     [2fc8729b] (000/1033) No match (V2 was not tested)
 10     [552c8941] (000/1039) No match (V2 was not tested)
 11     [62499316] (000/1037) No match (V2 was not tested)
 12     [9594703a] (000/1034) No match (V2 was not tested)
 13     [1735b5a6] (000/1034) No match (V2 was not tested)
 14     [0230ad11] (000/1030) No match (V2 was not tested)
Offsetted by 24:
 01     [de2146f9] (000/1033) No match (V2 was not tested)
 02     [f2e1a6c4] (000/1035) No match (V2 was not tested)
 03     [ab5a3821] (000/1035) No match (V2 was not tested)
 04     [46971afa] (000/1037) No match (V2 was not tested)
 05     [341e7916] (000/1034) No match (V2 was not tested)
 06     [3f280b46] (000/1036) No match (V2 was not tested)
 07     [b263f2eb] (000/1035) No match (V2 was not tested)
 08     [826a43db] (000/1036) No match (V2 was not tested)
 09     [fa78c44a] (000/1033) No match (V2 was not tested)
 10     [a37d568c] (000/1039) No match (V2 was not tested)
 11     [44057324] (000/1037) No match (V2 was not tested)
 12     [ef2fa167] (000/1034) No match (V2 was not tested)
 13     [822760b7] (000/1034) No match (V2 was not tested)
 14     [8789df65] (000/1030) No match (V2 was not tested)

Track Peak [ CRC32  ] [W/O NULL] [  LOG   ]
 --   96.3 [B077298B] [388330E7]   CRC32   
 01   95.8 [1F847A91] [F4D1A88E]           
 02   95.8 [88B92570] [2F7EF4F4]           
 03   95.8 [B01214A7] [419E7EB9]           
 04   95.8 [EE42F878] [799B4C6A]           
 05   95.8 [AB84AE2F] [91F505F2]           
 06   95.8 [175E961A] [330540A0]           
 07   96.1 [A34CC10E] [6FE02CEF]           
 08   96.1 [5FD90F45] [F076ADC6]           
 09   96.3 [9924E0F6] [77212544]           
 10   95.8 [E5593FEA] [EE6E20A9]           
 11   95.9 [14C1B999] [29A3D14B]           
 12   96.3 [AE0E1396] [1740B4F5]           
 13   95.8 [81E8BA55] [EF144D1F]           
 14   95.9 [73CAC33C] [4D012A74]           



Create a new paste based on this one


Comments: