[ create a new paste ] login | about

Link: http://codepad.org/v9ToInuz    [ raw code | fork ]

Plain Text, pasted on Nov 24:
Exact Audio Copy V1.0 beta 2 from 29. April 2011

EAC extraction logfile from 14. June 2014, 8:09

The Who / Quadrophenia Live in London CD 1

Used drive  : Optiarc DVD RW AD-7561S   Adapter: 1  ID: 0

Read mode               : Secure
Utilize accurate stream : Yes
Defeat audio cache      : Yes
Make use of C2 pointers : No

Read offset correction                      : 6
Overread into Lead-In and Lead-Out          : No
Fill up missing offset samples with silence : Yes
Delete leading and trailing silent blocks   : No
Null samples used in CRC calculations       : Yes
Used interface                              : Native Win32 interface for Win NT & 2000
Gap handling                                : Appended to previous track

Used output format              : User Defined Encoder
Selected bitrate                : 256 kBit/s
Quality                         : High
Add ID3 tag                     : No
Command line compressor         : C:\Program Files\Exact Audio Copy\Flac\flac.exe
Additional command line options : -8 -V -T "ARTIST=%artist%" -T "TITLE=%title%" -T "ALBUM=%albumtitle%" -T "DATE=%year%" -T "TRACKNUMBER=%tracknr%" -T "TOTALTRACKS=%numtracks%" -T "GENRE=%genre%" -T "ALBUMARTIST=%albumartist%" -T "ALBUM ARTIST=%albumartist%


TOC of the extracted CD

     Track |   Start  |  Length  | Start sector | End sector 
    ---------------------------------------------------------
        1  |  0:00.00 |  1:58.13 |         0    |     8862   
        2  |  1:58.13 |  3:41.67 |      8863    |    25504   
        3  |  5:40.05 |  5:49.51 |     25505    |    51730   
        4  | 11:29.56 |  4:08.25 |     51731    |    70355   
        5  | 15:38.06 |  5:01.45 |     70356    |    92975   
        6  | 20:39.51 |  3:00.44 |     92976    |   106519   
        7  | 23:40.20 |  4:55.22 |    106520    |   128666   
        8  | 28:35.42 |  2:17.33 |    128667    |   138974   
        9  | 30:53.00 |  3:37.10 |    138975    |   155259   
       10  | 34:30.10 |  6:41.48 |    155260    |   185382   
       11  | 41:11.58 | 11:14.07 |    185383    |   235939   


Track  1

     Filename C:\torrent\The Who - Quadrophenia Live In London (2014) [FLAC] {2 CD plus DVD9 NTSC}\Disc 1of2\01 - I Am The Sea.wav

     Pre-gap length  0:00:02.00

     Peak level 53.3 %
     Extraction speed 1.9 X
     Track quality 99.9 %
     Test CRC F4CAD131
     Copy CRC F4CAD131
     Track not present in AccurateRip database
     Copy OK

Track  2

     Filename C:\torrent\The Who - Quadrophenia Live In London (2014) [FLAC] {2 CD plus DVD9 NTSC}\Disc 1of2\02 - The Real Me.wav

     Peak level 97.7 %
     Extraction speed 3.1 X
     Track quality 100.0 %
     Test CRC CE0773A0
     Copy CRC CE0773A0
     Track not present in AccurateRip database
     Copy OK

Track  3

     Filename C:\torrent\The Who - Quadrophenia Live In London (2014) [FLAC] {2 CD plus DVD9 NTSC}\Disc 1of2\03 - Quadrophenia.wav

     Peak level 97.7 %
     Extraction speed 3.6 X
     Track quality 100.0 %
     Test CRC 9CB5A881
     Copy CRC 9CB5A881
     Track not present in AccurateRip database
     Copy OK

Track  4

     Filename C:\torrent\The Who - Quadrophenia Live In London (2014) [FLAC] {2 CD plus DVD9 NTSC}\Disc 1of2\04 - Cut My Hair.wav

     Peak level 97.7 %
     Extraction speed 3.1 X
     Track quality 99.9 %
     Test CRC 57784610
     Copy CRC 57784610
     Track not present in AccurateRip database
     Copy OK

Track  5

     Filename C:\torrent\The Who - Quadrophenia Live In London (2014) [FLAC] {2 CD plus DVD9 NTSC}\Disc 1of2\05 - The Punk And The Godfather.wav

     Peak level 97.7 %
     Extraction speed 4.0 X
     Track quality 100.0 %
     Test CRC 698BF25C
     Copy CRC 698BF25C
     Track not present in AccurateRip database
     Copy OK

Track  6

     Filename C:\torrent\The Who - Quadrophenia Live In London (2014) [FLAC] {2 CD plus DVD9 NTSC}\Disc 1of2\06 - I'm One.wav

     Peak level 97.7 %
     Extraction speed 3.1 X
     Track quality 99.9 %
     Test CRC DE414FF9
     Copy CRC DE414FF9
     Track not present in AccurateRip database
     Copy OK

Track  7

     Filename C:\torrent\The Who - Quadrophenia Live In London (2014) [FLAC] {2 CD plus DVD9 NTSC}\Disc 1of2\07 - The Dirty Jobs.wav

     Peak level 97.7 %
     Extraction speed 4.4 X
     Track quality 100.0 %
     Test CRC AE05E316
     Copy CRC AE05E316
     Track not present in AccurateRip database
     Copy OK

Track  8

     Filename C:\torrent\The Who - Quadrophenia Live In London (2014) [FLAC] {2 CD plus DVD9 NTSC}\Disc 1of2\08 - Helpless Dance.wav

     Peak level 97.7 %
     Extraction speed 3.0 X
     Track quality 99.9 %
     Test CRC 4DBCA38D
     Copy CRC 4DBCA38D
     Track not present in AccurateRip database
     Copy OK

Track  9

     Filename C:\torrent\The Who - Quadrophenia Live In London (2014) [FLAC] {2 CD plus DVD9 NTSC}\Disc 1of2\09 - Is It In My Head.wav

     Peak level 97.7 %
     Extraction speed 3.7 X
     Track quality 99.9 %
     Test CRC 58EA1776
     Copy CRC 58EA1776
     Track not present in AccurateRip database
     Copy OK

Track 10

     Filename C:\torrent\The Who - Quadrophenia Live In London (2014) [FLAC] {2 CD plus DVD9 NTSC}\Disc 1of2\10 - I've Had Enough.wav

     Peak level 97.7 %
     Extraction speed 5.1 X
     Track quality 100.0 %
     Test CRC 5A2B7502
     Copy CRC 5A2B7502
     Track not present in AccurateRip database
     Copy OK

Track 11

     Filename C:\torrent\The Who - Quadrophenia Live In London (2014) [FLAC] {2 CD plus DVD9 NTSC}\Disc 1of2\11 - 5 15.wav

     Peak level 97.7 %
     Extraction speed 5.6 X
     Track quality 100.0 %
     Test CRC 5C414831
     Copy CRC 5C414831
     Track not present in AccurateRip database
     Copy OK


None of the tracks are present in the AccurateRip database

No errors occurred

End of status report

==== Log checksum 0FEC362400DD78ED55498C346C42D8E925C9C3B89B4777AE05761B81795C0372 ====



Create a new paste based on this one


Comments: