[ create a new paste ] login | about

Link: http://codepad.org/vBXw80aj    [ raw code | fork ]

Plain Text, pasted on Jun 24:
foobar2000 1.3.15 / Dynamic Range Meter 1.1.1
log date: 2017-06-12 22:09:02

--------------------------------------------------------------------------------
Analyzed: Ry Cooder / Boomer's Story (2017 MFSL Hybrid SACD)
--------------------------------------------------------------------------------

DR         Peak         RMS     Duration Track
--------------------------------------------------------------------------------
DR10      -0.50 dB   -13.35 dB      4:16 01-Boomer's Story
DR12      -0.45 dB   -16.28 dB      4:13 02-Cherry Ball Blues
DR10      -1.01 dB   -13.43 dB      2:20 03-Crow Black Chicken
DR11      -0.52 dB   -14.04 dB      4:27 04-Ax Sweet Mama
DR16      -0.31 dB   -20.10 dB      4:33 05-Maria Elena
DR12      -1.12 dB   -16.63 dB      3:27 06-Dark End of the Street
DR14      -0.70 dB   -19.12 dB      3:40 07-Rally 'Round the Flag
DR10      -0.40 dB   -15.18 dB      3:03 08-Comin' in on a Wing and a Prayer
DR13      -0.70 dB   -17.17 dB      4:38 09-President Kennedy
DR11      -0.74 dB   -15.81 dB      4:33 10-Good Morning Mr. Railroad Man
--------------------------------------------------------------------------------

Number of tracks:  10
Official DR value: DR12

Samplerate:        88200 Hz
Channels:          2
Bits per sample:   24
Bitrate:           2564 kbps
Codec:             FLAC
================================================================================




Create a new paste based on this one


Comments: