[ create a new paste ] login | about

Link: http://codepad.org/vDtM9NrL    [ raw code | fork ]

Plain Text, pasted on Aug 23:
foobar2000 1.3.16 / Dynamic Range Meter 1.1.1
log date: 2017-08-22 18:01:38

--------------------------------------------------------------------------------
Analyzed: Cream / Fresh Cream <Stereo & Mono>
--------------------------------------------------------------------------------

DR         Peak         RMS     Duration Track
--------------------------------------------------------------------------------
DR9       -6.73 dB   -18.76 dB      2:44 01-N.S.U. (Stereo)
DR10      -5.81 dB   -19.86 dB      4:21 02-Sleepy Time Time (Stereo)
DR9       -6.71 dB   -18.31 dB      2:00 03-Dreaming (Stereo)
DR9       -5.51 dB   -18.68 dB      3:18 04-Sweet Wine (Stereo)
DR10      -7.13 dB   -19.96 dB      6:30 05-Spoonful (Stereo)
DR9       -7.59 dB   -18.68 dB      3:06 06-Cat's Squirrel (Stereo)
DR11      -6.60 dB   -19.58 dB      2:08 07-Four Until Late (Stereo)
DR9       -7.64 dB   -18.31 dB      4:43 08-Rollin' And Tumblin' (Stereo)
DR7       -9.85 dB   -18.56 dB      3:58 09-I'm So Glad (Mono)
DR11      -6.49 dB   -21.76 dB      5:10 10-Toad (Stereo)
DR9       -7.93 dB   -21.07 dB      2:25 11-Wrapping Paper (Stereo)
DR8       -7.67 dB   -19.37 dB      2:52 12-I Feel Free (Stereo)
DR11      -5.05 dB   -17.74 dB      2:46 13-The Coffee Song (Stereo)
DR9       -8.61 dB   -19.11 dB      2:44 14-N.S.U. (Mono)
DR10      -8.21 dB   -20.05 dB      4:20 15-Sleepy Time Time (Mono)
DR9       -7.61 dB   -18.46 dB      1:59 16-Dreaming (Mono) 
DR11      -6.31 dB   -18.88 dB      3:18 17-Sweet Wine (Mono)
DR11      -6.04 dB   -19.21 dB      6:32 18-Spoonful (Mono)
DR5      -10.43 dB   -16.75 dB      3:00 19-Cat's Squirrel (Mono)
DR7       -9.30 dB   -17.69 dB      2:08 20-Four Until Late (Mono)
DR7      -10.38 dB   -18.04 dB      4:45 21-Rollin' And Tumblin' (Mono)
DR8       -9.90 dB   -19.14 dB      3:59 22-I'm So Glad (Mono)
DR7       -9.02 dB   -17.68 dB      5:11 23-Toad (Mono)
DR6       -9.93 dB   -17.62 dB      2:28 24-Wrapping Paper (Mono)
DR9       -7.36 dB   -18.87 dB      2:50 25-I Feel Free (Mono) 
DR7       -8.64 dB   -17.54 dB      2:56 26-The Coffee Song (Mono)
DR8       -8.29 dB   -17.82 dB      2:24 27-Wrapping Paper (French EP version)
DR10      -7.88 dB   -19.22 dB      3:18 28-Sweet Wine (French EP version)
DR9       -8.37 dB   -18.65 dB      3:56 29-I'm So Glad (French EP version)
DR10      -8.27 dB   -19.19 dB      3:02 30-Cat's Squirrel (French EP version)
DR10      -7.15 dB   -19.87 dB      1:49 31-Rollin' And Tumblin' (French EP version)
DR10      -8.00 dB   -19.80 dB      2:08 32-Four Until Late (French EP version)
--------------------------------------------------------------------------------

Number of tracks:  32
Official DR value: DR9

Samplerate:        2822400 Hz / PCM Samplerate: 88200 Hz
Channels:          2
Bits per sample:   1
Bitrate:           5645 kbps
Codec:             DSD64
================================================================================




Create a new paste based on this one


Comments: