[ create a new paste ] login | about

Link: http://codepad.org/vN3YN8GQ    [ raw code | fork ]

Plain Text, pasted on Oct 10:
foobar2000 1.2.8 / Dynamic Range Meter 1.1.1
log date: 2013-10-21 11:55:30

--------------------------------------------------------------------------------
Analyzed: Elton John / Captain Fantastic And The Brown Dirt Cowboy (2004 Hybrid SACD)
--------------------------------------------------------------------------------

DR         Peak         RMS     Duration Track
--------------------------------------------------------------------------------
DR13      -0.29 dB   -16.99 dB      5:47 01-Captain Fantastic And The Brown Dirt Cowboy
DR12      -0.59 dB   -14.52 dB      4:29 02-Tower Of Babel
DR10      -0.23 dB   -13.81 dB      4:34 03-Bitter Fingers
DR12      -0.51 dB   -14.79 dB      4:21 04-Tell Me When The Whistle Blows
DR11      -0.51 dB   -14.75 dB      6:47 05-Someone Saved My Life Tonight
DR12      -0.01 dB   -14.02 dB      4:01 06-(Gotta Get A) Meal Ticket
DR13      -0.62 dB   -17.25 dB      2:38 07-Better Off Dead
DR13      -0.58 dB   -15.36 dB      3:39 08-Writing
DR13      -0.64 dB   -17.98 dB      4:12 09-We All Fall In Love Sometimes
DR10      -0.57 dB   -13.84 dB      6:35 10-Curtains
DR10      -0.42 dB   -14.00 dB      6:21 11-Lucy In The Sky With Diamonds
DR12      -0.36 dB   -15.05 dB      3:50 12-One Day At A Time
DR8       -1.12 dB   -10.63 dB      5:21 13-Philadelphia Freedom
--------------------------------------------------------------------------------

Number of tracks:  13
Official DR value: DR11

Samplerate:        88200 Hz
Channels:          6
Bits per sample:   24
Bitrate:           8549 kbps
Codec:             FLAC
================================================================================




Create a new paste based on this one


Comments: