[ create a new paste ] login | about

Link: http://codepad.org/vVbF8371    [ raw code | fork ]

Plain Text, pasted on Nov 26:
Exact Audio Copy V0.99 prebeta 4 from 23. January 2008

Отчёт EAC об извлечении, выполненном 2. апреля 2010, 23:03

Roy Orbison / The Soul of Rock and Roll, Disc 1

Дисковод: ASUS    SDRW-08D1S-U   Adapter: 2  ID: 0

Режим чтения                 : Достоверность
Использование точного потока : Да
Отключение кэша аудио        : Да
Использование указателей C2  : Нет

Коррекция смещения при чтении                     : 667
Способность читать области Lead-in и Lead-out     : Да
Заполнение пропущенных сэмплов тишиной            : Да
Удаление блоков с тишиной в начале и конце        : Нет
При вычислениях CRC использовались нулевые сэмплы : Да
Интерфейс                                         : Встроенный Win32-интерфейс для Win NT/2000

Выходной формат : Внутренние WAV-операции
Формат сэмплов  : 44.100 Гц; 16 бит; стерео


TOC извлечённого CD

     Трек |   Старт  | Длительность | Начальный сектор | Конечный сектор 
    ---------------------------------------------------------------------
       1  |  0:00.00 |    2:03.37   |           0      |       9261      
       2  |  2:03.37 |    2:36.47   |        9262      |      21008      
       3  |  4:40.09 |    2:22.16   |       21009      |      31674      
       4  |  7:02.25 |    2:21.56   |       31675      |      42305      
       5  |  9:24.06 |    2:46.63   |       42306      |      54818      
       6  | 12:10.69 |    2:34.32   |       54819      |      66400      
       7  | 14:45.26 |    1:01.46   |       66401      |      71021      
       8  | 15:46.72 |    2:12.63   |       71022      |      80984      
       9  | 17:59.60 |    2:08.42   |       80985      |      90626      
      10  | 20:08.27 |    2:09.21   |       90627      |     100322      
      11  | 22:17.48 |    2:05.39   |      100323      |     109736      
      12  | 24:23.12 |    9:30.40   |      109737      |     152526      
      13  | 33:53.52 |    2:06.70   |      152527      |     162046      
      14  | 36:00.47 |    1:57.58   |      162047      |     170879      
      15  | 37:58.30 |    2:21.14   |      170880      |     181468      
      16  | 40:19.44 |    1:17.00   |      181469      |     187243      
      17  | 41:36.44 |    2:06.74   |      187244      |     196767      
      18  | 43:43.43 |    1:59.60   |      196768      |     205752      
      19  | 45:43.28 |    2:12.46   |      205753      |     215698      
      20  | 47:55.74 |    2:09.28   |      215699      |     225401      
      21  | 50:05.27 |    2:12.25   |      225402      |     235326      
      22  | 52:17.52 |    1:33.66   |      235327      |     242367      
      23  | 53:51.43 |    1:27.14   |      242368      |     248906      
      24  | 55:18.57 |    2:38.20   |      248907      |     260776      
      25  | 57:57.02 |    2:14.40   |      260777      |     270866      
      26  | 60:11.42 |    1:21.03   |      270867      |     276944      
      27  | 61:32.45 |    2:08.29   |      276945      |     286573      
      28  | 63:40.74 |    1:40.60   |      286574      |     294133      
      29  | 65:21.59 |    2:40.29   |      294134      |     306162      
      30  | 68:02.13 |    2:05.58   |      306163      |     315595      
      31  | 70:07.71 |    2:25.48   |      315596      |     326518      
      32  | 72:33.44 |    2:17.60   |      326519      |     336853      


Характеристики диапазона извлечения и сообщения об ошибках

Выбранный диапазон

     Имя файла F:\My Documents\Music\ROY\Roy Orbison - The Soul of Rock and Roll, Disc 1.wav

     Пиковый уровень 99.9 %
     Качество диапазона 100.0 %
     CRC теста CE09E713
     CRC копии CE09E713
     Копирование... OK

Ошибок не произошло

 
AccurateRip: сводка
 
Трек  1  точное извлечение (доверие 10)  [9B3F9E28]
Трек  2  точное извлечение (доверие 11)  [E889153C]
Трек  3  точное извлечение (доверие 11)  [188AC5AA]
Трек  4  точное извлечение (доверие 10)  [7D0B719D]
Трек  5  точное извлечение (доверие 11)  [DD759C3E]
Трек  6  точное извлечение (доверие 11)  [B7E84C3A]
Трек  7  точное извлечение (доверие 10)  [04CCD120]
Трек  8  точное извлечение (доверие 11)  [651931C4]
Трек  9  точное извлечение (доверие 11)  [9C10D4D6]
Трек 10  точное извлечение (доверие 11)  [EEB52551]
Трек 11  точное извлечение (доверие 11)  [10DF8F4B]
Трек 12  точное извлечение (доверие 10)  [1455B95E]
Трек 13  точное извлечение (доверие 11)  [7882813D]
Трек 14  точное извлечение (доверие 11)  [10D9EBCF]
Трек 15  точное извлечение (доверие 11)  [0B23BD92]
Трек 16  точное извлечение (доверие 10)  [A52FBD47]
Трек 17  точное извлечение (доверие 10)  [19B7D255]
Трек 18  точное извлечение (доверие 10)  [51832352]
Трек 19  точное извлечение (доверие 10)  [FD6316E9]
Трек 20  точное извлечение (доверие 10)  [99ADB260]
Трек 21  точное извлечение (доверие 10)  [49C733A8]
Трек 22  точное извлечение (доверие 8)  [A5D3AFC2]
Трек 23  точное извлечение (доверие 10)  [92D0B5DA]
Трек 24  точное извлечение (доверие 9)  [698F6F92]
Трек 25  точное извлечение (доверие 11)  [E23BDC84]
Трек 26  точное извлечение (доверие 11)  [E4C1EF54]
Трек 27  точное извлечение (доверие 10)  [82415E62]
Трек 28  точное извлечение (доверие 10)  [AFE196A1]
Трек 29  точное извлечение (доверие 11)  [59188183]
Трек 30  точное извлечение (доверие 10)  [DEF8FB93]
Трек 31  точное извлечение (доверие 10)  [F60C850F]
Трек 32  точное извлечение (доверие 10)  [B68CF5D0]
 
Все треки извлечены точно

Конец отчёта



Create a new paste based on this one


Comments: