[ create a new paste ] login | about

Link: http://codepad.org/vaKZzqEE    [ raw code | fork ]

Plain Text, pasted on Feb 15:
[CUETools log; Date: 8/19/2015 9:25:36 AM; Version: 2.1.5]
[CTDB TOCID: G4f3m._Ut3hUYhWTn_ijpnzAcvc-] found.
Track | CTDB Status
  1   | (9/9) Accurately ripped
  2   | (9/9) Accurately ripped
  3   | (9/9) Accurately ripped
  4   | (9/9) Accurately ripped
  5   | (9/9) Accurately ripped
  6   | (9/9) Accurately ripped
  7   | (9/9) Accurately ripped
  8   | (9/9) Accurately ripped
  9   | (9/9) Accurately ripped
 10   | (9/9) Accurately ripped
 11   | (9/9) Accurately ripped
 12   | (9/9) Accurately ripped
[AccurateRip ID: 00116415-00a2e184-9b08e60c] found.
Track   [  CRC   |   V2   ] Status
 01     [5276462b|feacb710] (00+22/22) Accurately ripped
 02     [2b3d562d|0365058d] (00+22/22) Accurately ripped
 03     [7a7549d5|2fafbc44] (00+22/22) Accurately ripped
 04     [742c1740|72f961ea] (00+22/22) Accurately ripped
 05     [902686a3|b4276662] (00+22/22) Accurately ripped
 06     [770692b3|2af3fd10] (00+22/22) Accurately ripped
 07     [f9c22747|02157e24] (00+22/22) Accurately ripped
 08     [3db0be18|d2afdb88] (00+22/22) Accurately ripped
 09     [95b129a9|ada4c8e4] (00+22/22) Accurately ripped
 10     [196cdacb|4611df8a] (00+22/22) Accurately ripped
 11     [2dd012a7|6d60292f] (00+21/21) Accurately ripped
 12     [7f35affe|4ce186b3] (00+22/22) Accurately ripped

Track Peak [ CRC32  ] [W/O NULL] [  LOG   ]
 --   98.2 [A4CA3602] [850003CF]   CRC32   
 01   83.8 [6F6C49B8] [4ECA3842]           
 02   41.2 [072896FD] [756AB9E5]           
 03   82.4 [DD8B6E16] [9E619D01]           
 04   90.9 [2E7BC62A] [7D1CD90E]           
 05   82.5 [78BF9D07] [DB02892E]           
 06   81.1 [3422FA18] [4B066775]           
 07   71.5 [5CC0DDDD] [7116D519]           
 08   98.2 [22F81479] [54168629]           
 09   93.8 [D7603666] [3DFCF75B]           
 10   87.0 [1452E821] [3456C568]           
 11   94.7 [86A22D2B] [3C29B688]           
 12   95.6 [215C0041] [E43AD084]           



Create a new paste based on this one


Comments: