[ create a new paste ] login | about

Link: http://codepad.org/vaT9QrXb    [ raw code | fork ]

Plain Text, pasted on Jul 31:
foobar2000 1.2.8 / Dynamic Range Meter 1.1.1
log date: 2013-10-21 10:46:58

--------------------------------------------------------------------------------
Analyzed: Rod Stewart / Gasoline Alley (2010 SHM-SACD)
--------------------------------------------------------------------------------

DR         Peak         RMS     Duration Track
--------------------------------------------------------------------------------
DR10      -0.18 dB   -13.86 dB      4:08 01-Gasoline Alley
DR11      -0.77 dB   -14.40 dB      6:31 02-It's All Over Now
DR11      -0.48 dB   -16.04 dB      4:24 03-Only A Hobo
DR10      -0.67 dB   -14.70 dB      3:59 04-My Way Of Giving
DR12      -0.49 dB   -15.55 dB      4:51 05-Country Comforts
DR12      -0.01 dB   -14.44 dB      6:38 06-Cut Across Shorty
DR11      -3.91 dB   -17.88 dB      4:19 07-Lady Day
DR12      -2.32 dB   -18.39 dB      3:35 08-Jo's Lament
DR12      -1.26 dB   -15.26 dB      4:34 09-You're My Girl (I Don't Want To Discuss It)
--------------------------------------------------------------------------------

Number of tracks:  9
Official DR value: DR11

Samplerate:        88200 Hz
Channels:          2
Bits per sample:   24
Bitrate:           2725 kbps
Codec:             FLAC
================================================================================




Create a new paste based on this one


Comments: