[ create a new paste ] login | about

Link: http://codepad.org/vh26bBPN    [ raw code | fork ]

Plain Text, pasted on Jul 24:
foobar2000 1.3.17 / Dynamic Range Meter 1.1.1
log date: 2018-07-23 01:42:06

--------------------------------------------------------------------------------
Analyzed: ? / ?
--------------------------------------------------------------------------------

DR         Peak         RMS     Duration Track
--------------------------------------------------------------------------------
DR16      -5.51 dB   -29.09 dB      5:09 01-Let´s Call This
DR16      -5.78 dB   -30.30 dB      5:19 02-Work
DR13      -5.58 dB   -24.64 dB      5:18 03-Nutty
DR14      -5.58 dB   -24.93 dB      5:14 04-The Way You Look Tonight
DR15      -5.50 dB   -26.56 dB      5:15 05-Round About Midnight
DR13      -5.38 dB   -24.83 dB      3:07 06-Evidence
DR13      -5.33 dB   -25.43 dB      3:26 07-Smoke Gets In Your Eyes
DR13      -5.79 dB   -24.95 dB      3:27 08-Well You Needn´t 
DR14      -5.33 dB   -25.78 dB      5:03 09-Reflections
DR13      -5.47 dB   -23.88 dB      2:36 10-Wee See
DR14      -5.30 dB   -25.44 dB      2:34 11-Eronel 
DR13      -5.52 dB   -24.86 dB      2:35 12-Off Minor
DR14      -5.68 dB   -25.24 dB      3:03 13-Hackensack 
DR11      -5.44 dB   -21.24 dB      3:05 14-Evonce
--------------------------------------------------------------------------------

Number of tracks:  14
Official DR value: DR14

Samplerate:        2822400 Hz / PCM Samplerate: 176400 Hz
Channels:          6
Bits per sample:   1
Bitrate:           16934 kbps
Codec:             DST64
================================================================================

--------------------------------------------------------------------------------
Analyzed: ? / ?
--------------------------------------------------------------------------------

DR         Peak         RMS     Duration Track
--------------------------------------------------------------------------------
DR18      -5.71 dB   -26.12 dB      5:09 01-Let´s Call This
DR18      -5.67 dB   -27.93 dB      5:19 02-Work
DR12      -5.23 dB   -20.57 dB      5:18 03-Nutty
DR14      -5.61 dB   -22.10 dB      5:14 04-The Way You Look Tonight
DR16      -5.30 dB   -23.56 dB      5:15 05-Round About Midnight
DR13      -5.49 dB   -21.83 dB      3:07 06-Evidence
DR14      -5.43 dB   -22.14 dB      3:26 07-Smoke Gets In Your Eyes
DR13      -5.48 dB   -21.96 dB      3:27 08-Well You Needn´t 
DR15      -5.17 dB   -22.75 dB      5:03 09-Reflections
DR13      -5.44 dB   -20.78 dB      2:36 10-Wee See
DR15      -5.48 dB   -22.58 dB      2:34 11-Eronel 
DR14      -5.49 dB   -22.71 dB      2:35 12-Off Minor
DR15      -5.53 dB   -22.86 dB      3:03 13-Hackensack 
DR11      -5.26 dB   -17.58 dB      3:05 14-Evonce
--------------------------------------------------------------------------------

Number of tracks:  14
Official DR value: DR14

Samplerate:        2822400 Hz / PCM Samplerate: 176400 Hz
Channels:          2
Bits per sample:   1
Bitrate:           5645 kbps
Codec:             DST64
================================================================================




Create a new paste based on this one


Comments: