[ create a new paste ] login | about

Link: http://codepad.org/vhUhZlry    [ raw code | fork ]

Plain Text, pasted on Jul 27:
[CUETools log; Date: 7/27/2016 5:47:25 PM; Version: 2.1.5]
[CTDB TOCID: 9MJjLhVChblZNVy0kE3yOIHKTH8-] found.
Track | CTDB Status
  1   | (2/2) Accurately ripped
  2   | (2/2) Accurately ripped
  3   | (2/2) Accurately ripped
  4   | (2/2) Accurately ripped
  5   | (2/2) Accurately ripped
  6   | (2/2) Accurately ripped
  7   | (2/2) Accurately ripped
  8   | (2/2) Accurately ripped
  9   | (2/2) Accurately ripped
 10   | (2/2) Accurately ripped
 11   | (2/2) Accurately ripped
 12   | (2/2) Accurately ripped
 13   | (2/2) Accurately ripped
 14   | (2/2) Accurately ripped
 15   | (2/2) Accurately ripped
 16   | (2/2) Accurately ripped
 17   | (2/2) Accurately ripped
 18   | (2/2) Accurately ripped
 19   | (2/2) Accurately ripped
[AccurateRip ID: 0037eb0c-0307bbd6-2512a113] found.
Track   [  CRC   |   V2   ] Status
 01     [ed2ed7d4|53b75398] (0+1/1) Accurately ripped
 02     [4c65bcda|2b97fd2e] (0+1/1) Accurately ripped
 03     [cfd79730|26fe31bc] (0+1/1) Accurately ripped
 04     [dcb11ab6|56810137] (0+1/1) Accurately ripped
 05     [790eb728|cee75fca] (0+1/1) Accurately ripped
 06     [622c6a20|8bd73a08] (0+1/1) Accurately ripped
 07     [ee1a138b|e547e58b] (0+1/1) Accurately ripped
 08     [dd104dab|db028e23] (0+1/1) Accurately ripped
 09     [7e361f44|ff186c02] (0+1/1) Accurately ripped
 10     [2fc7055e|2465aa29] (0+1/1) Accurately ripped
 11     [128b35b7|fc28bf72] (0+1/1) Accurately ripped
 12     [cfc96b52|197d8539] (0+1/1) Accurately ripped
 13     [e2283351|0e0c6d66] (0+1/1) Accurately ripped
 14     [6f94d63e|d3c6933e] (0+1/1) Accurately ripped
 15     [f057b67b|356c05cb] (0+1/1) Accurately ripped
 16     [b53d7159|0dad8f6e] (0+1/1) Accurately ripped
 17     [7c3b6217|4dda7430] (0+1/1) Accurately ripped
 18     [b8bef741|3eabf7cf] (0+1/1) Accurately ripped
 19     [e663333c|017b97cb] (0+1/1) Accurately ripped

Track Peak [ CRC32  ] [W/O NULL] [  LOG   ]
 --   99.0 [B645C0BD] [DB31D64D]   CRC32   
 01   99.0 [DAA88EEB] [12C16FA0]           
 02   99.0 [58A073DE] [248958C1]           
 03   99.0 [14C7DEFC] [E2B00B59]           
 04   99.0 [EEAEDEE8] [BEECA44D]           
 05   99.0 [BBF73C65] [C059F383]           
 06   99.0 [959B2340] [569E703E]           
 07   99.0 [32149F54] [0D349F5E]           
 08   86.2 [6971229F] [D59AD9EF]           
 09   99.0 [18F69404] [B03F150B]           
 10   99.0 [8159F279] [FC26820D]           
 11   88.4 [8B197ABD] [B60C9C21]           
 12   99.0 [EDE96271] [41134F4F]           
 13   99.0 [0A0182D3] [13A0CD5C]           
 14   99.0 [DEA296E4] [7841A740]           
 15   97.7 [EBB8DB3C] [19C087B2]           
 16   96.1 [47DF8B7D] [F8FACD8A]           
 17   89.1 [D59238FE] [79EFB2D2]           
 18   91.7 [01F2FC0B] [11D09180]           
 19   99.0 [BCB5D100] [570EE371]           



Create a new paste based on this one


Comments: