[ create a new paste ] login | about

Link: http://codepad.org/viJ9aJ3a    [ raw code | fork ]

Plain Text, pasted on Jun 5:
foobar2000 1.4.4 / Dynamic Range Meter 1.1.1
log date: 2019-06-05 09:55:19

--------------------------------------------------------------------------------
Analyzed: Yellow Magic Orchestra / Multiplies
--------------------------------------------------------------------------------

DR         Peak         RMS     Duration Track
--------------------------------------------------------------------------------
DR10      -5.62 dB   -17.44 dB      0:21 01-Jingle "Y.M.O."
DR8       -5.45 dB   -14.26 dB      3:47 02-Nice Age
DR17      -5.76 dB   -25.30 dB      1:56 03-Snakeman Show
DR8       -5.29 dB   -15.12 dB      3:42 04-Tighten Up (Japanese Gentlemen Stand Up Please!)
DR16      -7.08 dB   -26.33 dB      2:06 05-Snakeman Show
DR8       -5.26 dB   -15.43 dB      1:07 06-Here We Go Again - Tighten Up
DR13      -8.63 dB   -24.10 dB      1:26 07-Snakeman Show
DR7       -5.42 dB   -13.99 dB      4:29 08-Citizens Of Science
DR11      -5.95 dB   -21.93 dB      2:09 09-Snakeman Show
DR7       -5.40 dB   -14.76 dB      2:56 10-Multiplies
DR11      -6.67 dB   -20.47 dB      3:45 11-Snakeman Show
DR8       -5.56 dB   -16.75 dB      1:35 12-The End Of Asia
--------------------------------------------------------------------------------

Number of tracks:  12
Official DR value: DR10

Samplerate:        2822400 Hz / PCM Samplerate: 176400 Hz
Channels:          2
Bits per sample:   1
Bitrate:           5645 kbps
Codec:             DSD64
================================================================================




Create a new paste based on this one


Comments: