[ create a new paste ] login | about

Link: http://codepad.org/vj7lIbUe    [ raw code | fork ]

Plain Text, pasted on Dec 28:
foobar2000 1.3.8 / Dynamic Range Meter 1.1.1
log date: 2016-10-22 18:29:35

--------------------------------------------------------------------------------
Analyzed: The Rolling Stones / Out of Our Heads (U.S.)
--------------------------------------------------------------------------------

DR         Peak         RMS     Duration Track
--------------------------------------------------------------------------------
DR11       0.00 dB   -12.18 dB      2:47 01-Mercy Mercy
DR10      -0.07 dB   -11.59 dB      2:26 02-Hitch Hike
DR9        0.00 dB    -9.82 dB      3:42 03-The Last Time
DR10       0.00 dB   -11.62 dB      2:26 04-That's How Strong My Love Is
DR10      -0.02 dB   -10.91 dB      1:59 05-Good Times
DR10      -0.21 dB   -11.60 dB      2:25 06-I'm Alright
DR10       0.00 dB   -11.57 dB      3:43 07-(I Can't Get No) Satisfaction
DR10       0.00 dB   -12.15 dB      3:10 08-Cry To Me
DR11      -0.28 dB   -12.58 dB      3:07 09-The Under Assistant West Coast Promotion Man
DR10       0.00 dB   -12.86 dB      2:15 10-Play With Fire
DR12      -0.29 dB   -14.19 dB      3:40 11-The Spider And The Fly
DR12       0.00 dB   -12.89 dB      2:00 12-One More Try
--------------------------------------------------------------------------------

Number of tracks:  12
Official DR value: DR10

Samplerate:        192000 Hz
Channels:          2
Bits per sample:   24
Bitrate:           3366 kbps
Codec:             FLAC
================================================================================




Create a new paste based on this one


Comments: