[ create a new paste ] login | about

Link: http://codepad.org/vogIv25x    [ raw code | fork ]

Plain Text, pasted on Jul 24:
foobar2000 1.3.17 / Dynamic Range Meter 1.1.1
log date: 2018-07-24 14:11:02

--------------------------------------------------------------------------------
Analyzed: Lee Konitz / Supreme Jazz
--------------------------------------------------------------------------------

DR         Peak         RMS     Duration Track
--------------------------------------------------------------------------------
DR12      -0.03 dB   -17.36 dB      2:51 01-Subconscious-Lee
DR15      -0.03 dB   -24.29 dB      3:10 02-Retrospection
DR14      -0.06 dB   -21.47 dB      3:23 03-Wow
DR13      -0.03 dB   -20.80 dB      3:06 04-Marionette
DR13      -0.06 dB   -18.92 dB      3:02 05-Sax Of A Kind
DR14      -0.03 dB   -21.10 dB      2:57 06-Marshmallow
DR16      -0.03 dB   -23.24 dB      4:09 07-Sound - Lee
DR13      -0.03 dB   -20.63 dB      2:38 08-You Go To My Head
DR13      -0.01 dB   -19.07 dB      2:54 09-Odjenar
DR13      -0.02 dB   -19.79 dB      3:08 10-Hibeck
DR12      -0.03 dB   -18.96 dB      2:28 11-Yesterdays
DR12      -0.03 dB   -18.60 dB      2:54 12-Ezz-Thetic
DR13      -0.04 dB   -19.20 dB      2:41 13-Duet For Saxophone And Guitar
DR13      -0.02 dB   -19.58 dB      2:57 14-Broadway
DR13      -0.02 dB   -19.38 dB      3:00 15-Almost Like Being In Love
DR14      -0.03 dB   -21.39 dB      3:34 16-Bernie's Tune
DR13      -0.03 dB   -19.69 dB      2:33 17-Oh Lady Be Good
DR13      -0.04 dB   -19.89 dB      3:02 18-Sextet
DR12      -0.04 dB   -19.39 dB      3:06 19-Easy Livin'
DR11      -0.03 dB   -18.90 dB      3:57 20-317 East32nd
DR13      -0.01 dB   -22.13 dB      3:00 21-Skylark
DR14      -0.04 dB   -22.20 dB      6:27 22-If I Had You
--------------------------------------------------------------------------------

Number of tracks:  22
Official DR value: DR13

Samplerate:        88200 Hz
Channels:          6
Bits per sample:   24
Bitrate:           6712 kbps
Codec:             FLAC
================================================================================




Create a new paste based on this one


Comments: