[ create a new paste ] login | about

Link: http://codepad.org/vuFIvqZM    [ raw code | fork ]

Plain Text, pasted on Jun 29:
[CUETools log; Date: 6/29/2017 3:02:15 PM; Version: 2.1.5]
[CTDB TOCID: 5vMgMGX14_NUaG5FIxEfQfm9V_0-] found.
Track | CTDB Status
  1   | (175/176) Accurately ripped
  2   | (176/176) Accurately ripped
  3   | (175/176) Accurately ripped
  4   | (175/176) Accurately ripped
  5   | (173/176) Accurately ripped
  6   | (176/176) Accurately ripped
  7   | (176/176) Accurately ripped
  8   | (176/176) Accurately ripped
  9   | (176/176) Accurately ripped
 10   | (176/176) Accurately ripped
 11   | (176/176) Accurately ripped
 12   | (170/176) Accurately ripped
 13   | (173/176) Accurately ripped
 14   | (171/176) Accurately ripped
 15   | (170/176) Accurately ripped
 16   | (174/176) Accurately ripped
[AccurateRip ID: 002d1be8-0216daea-0a11ff10] found.
Track   [  CRC   |   V2   ] Status
 01     [13dd7796|95499628] (035+085/137) Accurately ripped
 02     [8243bfc0|d3aea6d7] (034+085/136) Accurately ripped
 03     [117a5777|381f0326] (034+086/137) Accurately ripped
 04     [f11e4f6c|cd028e40] (034+085/136) Accurately ripped
 05     [98c5dedc|51f64a85] (035+086/138) Accurately ripped
 06     [96208a1d|451390b9] (035+086/138) Accurately ripped
 07     [5e1cf56e|8d83df52] (034+086/137) Accurately ripped
 08     [0e6d1f18|f71c9823] (035+085/137) Accurately ripped
 09     [e895b518|e325e1e3] (035+086/138) Accurately ripped
 10     [ca1f1e04|fc7eb47e] (035+084/136) Accurately ripped
 11     [858e0a1e|07ff3072] (035+084/136) Accurately ripped
 12     [03086d1e|520ba583] (035+084/136) Accurately ripped
 13     [0875b283|f2c2f504] (035+086/138) Accurately ripped
 14     [1cfa86ab|d404923c] (034+083/134) Accurately ripped
 15     [e18f1af9|3edaa9ff] (034+083/134) Accurately ripped
 16     [5e3d0e35|dd088119] (031+083/133) Accurately ripped
Offsetted by -71:
 01     [8ac5e2e6] (002/137) Accurately ripped
 02     [68cb0981] (002/136) Accurately ripped
 03     [25ed8a02] (002/137) Accurately ripped
 04     [51c88c72] (002/136) Accurately ripped
 05     [0f32c15c] (002/138) Accurately ripped
 06     [7bfa54eb] (002/138) Accurately ripped
 07     [55c70848] (002/137) Accurately ripped
 08     [7c726199] (002/137) Accurately ripped
 09     [b28a6702] (002/138) Accurately ripped
 10     [1b864a13] (002/136) Accurately ripped
 11     [0d3bcabf] (002/136) Accurately ripped
 12     [857c7c1b] (002/136) Accurately ripped
 13     [fd0fc473] (002/138) Accurately ripped
 14     [420eb58f] (002/134) Accurately ripped
 15     [30846658] (002/134) Accurately ripped
 16     [1302f3d8] (002/133) Accurately ripped
Offsetted by -30:
 01     [e51d9bd2] (002/137) Accurately ripped
 02     [8c360f57] (002/136) Accurately ripped
 03     [2ef40f30] (002/137) Accurately ripped
 04     [fd1e2118] (002/136) Accurately ripped
 05     [52b037e1] (002/138) Accurately ripped
 06     [f6532ed4] (002/138) Accurately ripped
 07     [ad854582] (002/137) Accurately ripped
 08     [0a6f580a] (002/137) Accurately ripped
 09     [3deb124c] (002/138) Accurately ripped
 10     [a8029932] (002/136) Accurately ripped
 11     [f15cdd50] (002/136) Accurately ripped
 12     [a983df5f] (002/136) Accurately ripped
 13     [7b58d572] (002/138) Accurately ripped
 14     [cdf8f459] (002/134) Accurately ripped
 15     [0deb373f] (002/134) Accurately ripped
 16     [a2c710b3] (002/133) Accurately ripped
Offsetted by 6:
 01     [4f33f99e] (002/137) Accurately ripped
 02     [b6ff1a92] (002/136) Accurately ripped
 03     [3ef432b9] (002/137) Accurately ripped
 04     [551e58b0] (002/136) Accurately ripped
 05     [c269b1d8] (002/138) Accurately ripped
 06     [82fecf95] (002/138) Accurately ripped
 07     [e7d4e56a] (002/137) Accurately ripped
 08     [426cad4e] (002/137) Accurately ripped
 09     [d784a274] (002/138) Accurately ripped
 10     [0424d22e] (002/136) Accurately ripped
 11     [3ccb1314] (002/136) Accurately ripped
 12     [c5bbeb8a] (002/136) Accurately ripped
 13     [ce006f1c] (002/138) Accurately ripped
 14     [f9c870c0] (002/134) Accurately ripped
 15     [bb2fd44e] (002/134) Accurately ripped
 16     [1df8daac] (002/133) Accurately ripped
Offsetted by -132:
 01     [e1ff07cc] (000/137) No match (V2 was not tested)
 02     [af16a9fc] (000/136) No match (V2 was not tested)
 03     [34907f41] (000/137) No match (V2 was not tested)
 04     [591d8394] (000/136) No match (V2 was not tested)
 05     [7bc4d4aa] (000/138) No match (V2 was not tested)
 06     [485c9657] (000/138) No match (V2 was not tested)
 07     [884e55c6] (000/137) No match (V2 was not tested)
 08     [9676e674] (000/137) No match (V2 was not tested)
 09     [600d4f30] (000/138) No match (V2 was not tested)
 10     [cda1a268] (000/136) No match (V2 was not tested)
 11     [c64f44fa] (000/136) No match (V2 was not tested)
 12     [ba8457ed] (000/136) No match (V2 was not tested)
 13     [bbee8e77] (000/138) No match (V2 was not tested)
 14     [32cb6b38] (000/134) No match (V2 was not tested)
 15     [03c0f57b] (000/134) No match (V2 was not tested)
 16     [25a586ab] (000/133) No match (V2 was not tested)
Offsetted by -54:
 01     [9be17386] (000/137) No match (V2 was not tested)
 02     [4389fc7d] (000/136) No match (V2 was not tested)
 03     [7aaba202] (000/137) No match (V2 was not tested)
 04     [6d1dfc08] (000/136) No match (V2 was not tested)
 05     [6822dba3] (000/138) No match (V2 was not tested)
 06     [44271942] (000/138) No match (V2 was not tested)
 07     [86a58592] (000/137) No match (V2 was not tested)
 08     [3a711f32] (000/137) No match (V2 was not tested)
 09     [822f5cdc] (000/138) No match (V2 was not tested)
 10     [bfebc88a] (000/136) No match (V2 was not tested)
 11     [1468b978] (000/136) No match (V2 was not tested)
 12     [fa46a379] (000/136) No match (V2 was not tested)
 13     [47ea75df] (000/138) No match (V2 was not tested)
 14     [5c7b4c66] (000/134) No match (V2 was not tested)
 15     [e400977e] (000/134) No match (V2 was not tested)
 16     [aac0e064] (000/133) No match (V2 was not tested)
Offsetted by -18:
 01     [095fb013] (000/137) No match (V2 was not tested)
 02     [8ddb4ae1] (000/136) No match (V2 was not tested)
 03     [8967c5b1] (000/137) No match (V2 was not tested)
 04     [c51e33a0] (000/136) No match (V2 was not tested)
 05     [b854a9e3] (000/138) No match (V2 was not tested)
 06     [cfb7b9ba] (000/138) No match (V2 was not tested)
 07     [c0f5257a] (000/137) No match (V2 was not tested)
 08     [726e7476] (000/137) No match (V2 was not tested)
 09     [1bc8ed04] (000/138) No match (V2 was not tested)
 10     [1c0e0186] (000/136) No match (V2 was not tested)
 11     [5fd6ef3c] (000/136) No match (V2 was not tested)
 12     [d1370987] (000/136) No match (V2 was not tested)
 13     [5f28e5d9] (000/138) No match (V2 was not tested)
 14     [86fec872] (000/134) No match (V2 was not tested)
 15     [f1eb35bd] (000/134) No match (V2 was not tested)
 16     [204ca92d] (000/133) No match (V2 was not tested)
Offsetted by -12:
 01     [12c24268] (000/137) No match (V2 was not tested)
 02     [7fb3a5cb] (000/136) No match (V2 was not tested)
 03     [b6b3a0f2] (000/137) No match (V2 was not tested)
 04     [291e3ce4] (000/136) No match (V2 was not tested)
 05     [f0bbf4dd] (000/138) No match (V2 was not tested)
 06     [bc79ff34] (000/138) No match (V2 was not tested)
 07     [4aad1576] (000/137) No match (V2 was not tested)
 08     [a66e02ac] (000/137) No match (V2 was not tested)
 09     [0ab7da60] (000/138) No match (V2 was not tested)
 10     [5613b5b0] (000/136) No match (V2 was not tested)
 11     [1713f832] (000/136) No match (V2 was not tested)
 12     [94ad7094] (000/136) No match (V2 was not tested)
 13     [522d0c78] (000/138) No match (V2 was not tested)
 14     [6398b284] (000/134) No match (V2 was not tested)
 15     [6f9e7aa2] (000/134) No match (V2 was not tested)
 16     [df627574] (000/133) No match (V2 was not tested)

Track Peak [ CRC32  ] [W/O NULL] 
 --  100.0 [E2D79A75] [29A8E9BB]           
 01   98.8 [19163069] [4F41086C]           
 02   98.8 [AE7E0D99] [3321C57A]           
 03   98.8 [068E1E5D] [0A1A11A6]           
 04  100.0 [72467E9C] [8C103878]           
 05   98.8 [113EAA9C] [E6C26982]           
 06   99.9 [B80793D0] [DB7E0B32]           
 07   99.9 [79A034F6] [0E0415C4]           
 08   98.8 [C4686ED2] [67070746]           
 09   98.8 [19A14FDE] [AB17064B]           
 10   98.8 [E75B4134] [134DC5FC]           
 11   97.3 [480D57B6] [5872FEAD]           
 12   99.9 [ACCD7B52] [650B2388]           
 13   99.9 [E2FFB9E6] [2DE7BF03]           
 14   99.9 [C88894F1] [E98E3814]           
 15   98.8 [97E1D09C] [254A1436]           
 16   98.8 [BB11A362] [692B3C4B]           



Create a new paste based on this one


Comments: