[ create a new paste ] login | about

Link: http://codepad.org/vwaYp5K6    [ raw code | fork ]

Plain Text, pasted on Apr 30:
foobar2000 1.4.1 / Dynamic Range Meter 1.1.1
log date: 2019-04-30 11:31:01

--------------------------------------------------------------------------------
Analyzed: Dakota Staton / Jazz In An R&B Groove (1)
          Della Griffin / Jazz In An R&B Groove (2)
          Ernie Andrews / Jazz In An R&B Groove (3)
--------------------------------------------------------------------------------

DR         Peak         RMS     Duration Track
--------------------------------------------------------------------------------
DR13      -5.81 dB   -20.21 dB      4:58 03-Night Life
DR14      -5.94 dB   -25.07 dB      5:18 06-This Bitter Earth
DR13      -5.78 dB   -21.27 dB      5:08 09-Everybody's Somebody's Fool
--------------------------------------------------------------------------------

Number of tracks:  3
Official DR value: DR14

Samplerate:        2822400 Hz / PCM Samplerate: 176400 Hz
Channels:          2
Bits per sample:   1
Bitrate:           5645 kbps
Codec:             DSD64
================================================================================

--------------------------------------------------------------------------------
Analyzed: Houston Person / Jazz In An R&B Groove
--------------------------------------------------------------------------------

DR         Peak         RMS     Duration Track
--------------------------------------------------------------------------------
DR10      -7.30 dB   -18.45 dB      6:32 02-What's Going On
DR10      -7.76 dB   -18.97 dB      6:22 04-Let's Stay Together
DR10      -5.88 dB   -18.59 dB      7:01 07-At Last
--------------------------------------------------------------------------------

Number of tracks:  3
Official DR value: DR10

Samplerate:        2822400 Hz / PCM Samplerate: 176400 Hz
Channels:          2
Bits per sample:   1
Bitrate:           5645 kbps
Codec:             DSD64
================================================================================

--------------------------------------------------------------------------------
Analyzed: Irene Reid / Jazz In An R&B Groove
--------------------------------------------------------------------------------

DR         Peak         RMS     Duration Track
--------------------------------------------------------------------------------
DR12      -6.51 dB   -20.29 dB      4:48 01-What A Difference A Day Makes
DR12      -5.90 dB   -20.22 dB      5:04 10-I Believe I Can Fly
--------------------------------------------------------------------------------

Number of tracks:  2
Official DR value: DR12

Samplerate:        2822400 Hz / PCM Samplerate: 176400 Hz
Channels:          2
Bits per sample:   1
Bitrate:           5645 kbps
Codec:             DSD64
================================================================================

--------------------------------------------------------------------------------
Analyzed: Red Holloway / Jazz In An R&B Groove (1)
          The Charles Earland Tribute Band / Jazz In An R&B Groove (2)
--------------------------------------------------------------------------------

DR         Peak         RMS     Duration Track
--------------------------------------------------------------------------------
DR12      -7.81 dB   -21.30 dB      6:47 05-Watermelon Man
DR10      -5.80 dB   -18.08 dB      7:40 08-The Closer I Get to You
--------------------------------------------------------------------------------

Number of tracks:  2
Official DR value: DR11

Samplerate:        2822400 Hz / PCM Samplerate: 176400 Hz
Channels:          2
Bits per sample:   1
Bitrate:           5645 kbps
Codec:             DSD64
================================================================================

foobar2000 1.4.1 / Dynamic Range Meter 1.1.1
log date: 2019-04-30 11:30:21

--------------------------------------------------------------------------------
Statistics for: 11-Our Day Will Come
Number of samples: 865423104
Duration: 5:07 
--------------------------------------------------------------------------------

                 Left              Right

Peak Value:     -6.11 dB   ---     -6.64 dB   
Avg RMS:       -23.48 dB   ---    -21.98 dB   
DR channel:     15.27 dB   ---     13.46 dB   
--------------------------------------------------------------------------------

Official DR Value: DR14

Samplerate:        2822400 Hz / PCM Samplerate: 176400 Hz
Channels:          2
Bits per sample:   1
Bitrate:           5645 kbps
Codec:             DSD64
================================================================================



Create a new paste based on this one


Comments: