[ create a new paste ] login | about

Link: http://codepad.org/vzdumPWE    [ raw code | fork ]

Plain Text, pasted on Jul 30:
foobar2000 1.4.4 / Dynamic Range Meter 1.1.1
log date: 2019-07-30 11:14:46

--------------------------------------------------------------------------------
Analyzed: Grateful Dead / Aoxomoxoa [50th Anniversary Deluxe]
--------------------------------------------------------------------------------

DR         Peak         RMS     Duration Track
--------------------------------------------------------------------------------
DR7       -0.25 dB   -10.62 dB      4:29 01-St. Stephen (1969 Mix) (Remastered)
DR9       -0.35 dB   -10.92 dB      3:42 02-Dupree's Diamond Blue (1969 Mix) (Remastered)
DR9       -1.89 dB   -14.12 dB      2:06 03-Rosemary (1969 Mix) (Remastered)
DR8       -0.24 dB   -10.96 dB      5:18 04-Doin' That Rag (1969 Mix) (Remastered)
DR9       -1.38 dB   -12.51 dB      4:13 05-Mountains of the Moon (1969 Mix) (Remastered)
DR8       -0.52 dB   -11.65 dB      4:17 06-China Cat Sunflower (1969 Mix) (Remastered)
DR9       -1.33 dB   -15.07 dB      8:28 07-What's Become of the Baby (1969 Mix) (Remastered)
DR9       -0.38 dB   -12.21 dB      5:44 08-Cosmic Charlie (1969 Mix) (Remastered)
DR9       -0.24 dB   -12.17 dB      4:28 09-St. Stephen (1971 Mix) (Remastered)
DR9       -0.25 dB   -10.36 dB      3:33 10-Dupree's Diamond Blues (1971 Mix) (Remastered)
DR11      -0.31 dB   -15.25 dB      2:00 11-Rosemary (1971 Mix) (Remastered)
DR10      -0.23 dB   -11.93 dB      4:45 12-Doin' That Rag (1971 Mix) (Remastered)
DR11      -0.35 dB   -13.78 dB      4:05 13-Mountains of the Moon (1971 Mix) (Remastered)
DR9       -0.26 dB   -11.24 dB      3:42 14-China Cat Sunflower (1971 Mix) (Remastered)
DR13      -0.27 dB   -18.98 dB      8:15 15-What's Become of the Baby (1971 Mix) (Remastered)
DR11      -0.25 dB   -13.29 dB      5:30 16-Cosmic Charlie (1971 Mix) (Remastered)
DR15      -0.56 dB   -18.36 dB     13:59 17-New Potato Caboose (Live at Avalon Ballroom, San Francisco, CA, 1.24.69)
DR10      -0.61 dB   -13.27 dB      4:41 18-Dupree's Diamond Blues (Live at Avalon Ballroom, San Francisco, CA, 1.25.69)
DR9       -0.98 dB   -13.19 dB      5:42 19-Doin' That Rag (Live at Avalon Ballroom, San Francisco, CA, 1.25.69)
DR8       -0.56 dB   -12.83 dB      9:09 20-Alligator (Live at Avalon Ballroom, San Francisco, CA, 1.25.69)
DR7       -0.79 dB   -10.51 dB      7:11 21-Caution (Do Not Stop On Tracks) (Live at Avalon Ballroom, San Francisco, CA, 1.25.69)
DR7       -1.50 dB   -13.26 dB      3:46 22-Feedback (Live at Avalon Ballroom, San Francisco, CA, 1.25.69)
DR13      -4.35 dB   -24.02 dB      2:39 23-And We Bid You Goodnight (Live at Avalon Ballroom, San Francisco, CA, 1.25.69)
DR10      -0.88 dB   -15.42 dB     11:05 24-Clementine (Live at Avalon Ballroom, San Francisco, CA, 1.26.69)
DR9       -0.19 dB   -13.75 dB      9:57 25-Death Don't Have No Mercy (Live at Avalon Ballroom, San Francisco, CA, 1.26.69)
--------------------------------------------------------------------------------

Number of tracks:  25
Official DR value: DR10

Samplerate:        44100 Hz
Channels:          2
Bits per sample:   16
Bitrate:           735 kbps
Codec:             FLAC
================================================================================




Create a new paste based on this one


Comments: