[ create a new paste ] login | about

Link: http://codepad.org/w5JbESX6    [ raw code | fork ]

Plain Text, pasted on Aug 25:
foobar2000 1.3 / Dynamic Range Meter 1.1.1
log date: 2014-12-22 12:19:11

--------------------------------------------------------------------------------
Analyzed: Incubus / A Crow Left Of The Murder... (Hybrid SACD)
--------------------------------------------------------------------------------

DR         Peak         RMS     Duration Track
--------------------------------------------------------------------------------
DR11      -0.22 dB   -12.69 dB      4:55 01-Megalomaniac
DR10      -0.17 dB   -11.26 dB      3:31 02-A Crow Left Of The Murder
DR10      -0.29 dB   -11.31 dB      3:53 03-Agoraphobia
DR10      -0.28 dB   -12.26 dB      3:49 04-Talk Shows On Mute
DR11      -0.14 dB   -12.09 dB      3:49 05-Beware! Criminal
DR12      -0.22 dB   -12.62 dB      6:23 06-Sick Sad Little World
DR9       -0.23 dB   -11.93 dB      4:24 07-Pistola
DR12      -0.01 dB   -12.23 dB      3:41 08-Southern Girl
DR11      -0.37 dB   -11.60 dB      4:08 09-Priceless
DR11      -0.29 dB   -11.88 dB      3:54 10-Zee Deveel
DR9       -0.05 dB   -11.51 dB      3:37 11-Made For TV Movie
DR10      -0.31 dB   -10.90 dB      3:59 12-Smile Lines
DR9       -0.10 dB   -11.06 dB      4:20 13-Here In My Room
DR10      -0.05 dB   -10.88 dB      4:19 14-Leech
--------------------------------------------------------------------------------

Number of tracks:  14
Official DR value: DR10

Samplerate:        88200 Hz
Channels:          6
Bits per sample:   24
Bitrate:           7657 kbps
Codec:             FLAC
================================================================================




Create a new paste based on this one


Comments: