[ create a new paste ] login | about

Link: http://codepad.org/w6xd7h8T    [ raw code | fork ]

Plain Text, pasted on Nov 27:
foobar2000 1.1.18 / Dynamic Range Meter 1.1.1
log date: 2012-12-14 12:37:46

--------------------------------------------------------------------------------
Analyzed: Elvis Costello / North
--------------------------------------------------------------------------------

DR         Peak         RMS     Duration Track
--------------------------------------------------------------------------------
DR11      -0.13 dB   -15.06 dB      3:26 01-You Left Me In The Dark
DR11      -0.13 dB   -13.83 dB      4:35 02-Someone Took The Words Away
DR10      -0.11 dB   -13.00 dB      5:23 03-When Did I Stop Dreaming
DR10      -0.12 dB   -13.44 dB      2:32 04-You Turned To Me
DR11      -0.12 dB   -15.20 dB      3:12 05-Fallen
DR10      -0.13 dB   -13.22 dB      3:58 06-When It Sings
DR10      -0.11 dB   -13.04 dB      2:28 07-Still
DR13      -0.15 dB   -15.61 dB      4:24 08-Let Me Tell You About Her
DR8       -0.08 dB   -11.14 dB      3:46 09-Can You Be True?
DR10      -0.12 dB   -12.64 dB      4:18 10-When Green Eyes Turn Blue
DR10      -0.14 dB   -13.61 dB      2:36 11-I'm In The Mood Again
DR9       -0.01 dB   -10.70 dB      4:58 12-Impatience
--------------------------------------------------------------------------------

Number of tracks:  12
Official DR value: DR10

Samplerate:        88200 Hz
Channels:          2
Bits per sample:   24
Bitrate:           2874 kbps
Codec:             FLAC
================================================================================




Create a new paste based on this one


Comments: