[ create a new paste ] login | about

Link: http://codepad.org/wB7VgUhq    [ raw code | fork ]

Plain Text, pasted on Apr 12:
[CUETools log; Date: 4/12/2016 8:24:50 PM; Version: 2.1.5]
CDDBId mismatch: CF124721 vs E4126C1F
[CTDB TOCID: XhOA_sLExI0O.997mSKKLRPrcvU-] found.
Track | CTDB Status
  1   | (5/5) Accurately ripped
  2   | (5/5) Accurately ripped
  3   | (5/5) Accurately ripped
  4   | (5/5) Accurately ripped
  5   | (5/5) Accurately ripped
  6   | (5/5) Accurately ripped
  7   | (5/5) Accurately ripped
  8   | (5/5) Accurately ripped
  9   | (5/5) Accurately ripped
 10   | (5/5) Accurately ripped
 11   | (5/5) Accurately ripped
 12   | (5/5) Accurately ripped
 13   | (5/5) Accurately ripped
 14   | (5/5) Accurately ripped
 15   | (5/5) Accurately ripped
 16   | (5/5) Accurately ripped
 17   | (5/5) Accurately ripped
 18   | (5/5) Accurately ripped
 19   | (5/5) Accurately ripped
 20   | (5/5) Accurately ripped
 21   | (5/5) Accurately ripped
 22   | (5/5) Accurately ripped
 23   | (5/5) Accurately ripped
 24   | (5/5) Accurately ripped
 25   | (5/5) Accurately ripped
 26   | (5/5) Accurately ripped
 27   | (5/5) Accurately ripped
 28   | (5/5) Accurately ripped
 29   | (5/5) Accurately ripped
 30   | (5/5) Accurately ripped
 31   | (5/5) Accurately ripped
[AccurateRip ID: 0055f18e-076ca4f6-e4126c1f] found.
Track   [  CRC   |   V2   ] Status
 01     [bfaed98a|b1020a71] (3+5/8) Accurately ripped
 02     [84ae1936|8ec27911] (3+5/8) Accurately ripped
 03     [2d5b253e|c9af5cef] (3+5/8) Accurately ripped
 04     [4ba0861d|61e81550] (3+5/8) Accurately ripped
 05     [2c049caf|7c7d37e5] (3+5/8) Accurately ripped
 06     [49d17848|fd664033] (3+5/8) Accurately ripped
 07     [59480e64|37a3bef5] (3+5/8) Accurately ripped
 08     [6831bc2d|ad793349] (3+5/8) Accurately ripped
 09     [69686533|6bb0a99d] (3+5/8) Accurately ripped
 10     [3782bdf0|ad4e1eb1] (3+5/8) Accurately ripped
 11     [fd532fb3|9b70c765] (3+5/8) Accurately ripped
 12     [77255740|b838e626] (3+5/8) Accurately ripped
 13     [9b65e226|6a270274] (3+5/8) Accurately ripped
 14     [b93a3b64|de59a926] (3+5/8) Accurately ripped
 15     [5254ec18|2b71a72b] (3+5/8) Accurately ripped
 16     [546484b9|c9ff1e84] (3+5/8) Accurately ripped
 17     [074254d4|e62cda52] (3+5/8) Accurately ripped
 18     [6a122f47|06cd4ad3] (3+5/8) Accurately ripped
 19     [589197e9|77e3c798] (3+5/8) Accurately ripped
 20     [2a68adf5|3e507a9f] (3+5/8) Accurately ripped
 21     [fabc6ec4|d1823d9e] (3+5/8) Accurately ripped
 22     [86763501|d83464e2] (3+5/8) Accurately ripped
 23     [fe884e88|02d6f707] (3+5/8) Accurately ripped
 24     [d2087ef3|c239fb9a] (3+5/8) Accurately ripped
 25     [a1d32ecb|574c8c62] (3+5/8) Accurately ripped
 26     [96033e9b|b41d25c3] (3+5/8) Accurately ripped
 27     [cbd4fde1|c7364ed2] (3+5/8) Accurately ripped
 28     [c6f25c7f|f282e9a7] (3+5/8) Accurately ripped
 29     [e9c77cbc|f08b8982] (3+5/8) Accurately ripped
 30     [b9695be1|3fbfee07] (3+5/8) Accurately ripped
 31     [ba3b9fbc|cbc16e85] (3+5/8) Accurately ripped

Track Peak [ CRC32  ] [W/O NULL] 
 --   98.0 [EEED1EED] [E8E1DDED]           
 01   98.0 [0EC68707] [F3449C7C]           
 02   98.0 [92EF98B9] [4653C13C]           
 03   98.0 [2EDC0BD4] [56D56465]           
 04   98.0 [D51FD91E] [36B71E37]           
 05   98.0 [A3BF3A45] [F0B0D58D]           
 06   98.0 [6CE7F5CD] [0E465E32]           
 07   98.0 [B9D2DA28] [C4D7EF11]           
 08   98.0 [0E27D948] [9FB322EE]           
 09   98.0 [6CBFDCB1] [B2B64123]           
 10   98.0 [DCB2148E] [B0F13B5F]           
 11   98.0 [78C5A1BD] [ED43CEB8]           
 12   98.0 [F7AC0467] [54D5DE0B]           
 13   98.0 [625D7159] [40BD062B]           
 14   98.0 [F1DE1028] [87FC6DB0]           
 15   98.0 [CBA80842] [C58B5624]           
 16   98.0 [A4C05BDA] [ADF0DB13]           
 17   98.0 [3A4ADACD] [2A422655]           
 18   98.0 [13951CF1] [2A630546]           
 19   98.0 [1C040335] [4D125695]           
 20   98.0 [8EFFECC1] [63B3B076]           
 21   98.0 [633C4EEA] [6FEE8AC6]           
 22   98.0 [98F8362B] [D98AFDD9]           
 23   98.0 [64A15E97] [865E79DC]           
 24   98.0 [1D784559] [A492E2AF]           
 25   98.0 [15633368] [FC412110]           
 26   98.0 [88740FA4] [132385C3]           
 27   98.0 [4DC06157] [9716C47E]           
 28   98.0 [B595C07A] [89DDF621]           
 29   98.0 [D9EA0642] [915A37AA]           
 30   98.0 [D3E8558D] [BAE782BA]           
 31   98.0 [206ABBFA] [9819E448]           



Create a new paste based on this one


Comments: