[ create a new paste ] login | about

Link: http://codepad.org/wBDIjd39    [ raw code | fork ]

Plain Text, pasted on Jan 12:
foobar2000 1.3.17 / Dynamic Range Meter 1.1.1
log date: 2018-01-11 17:31:07

--------------------------------------------------------------------------------
Analyzed: ELVIS COSTELLO WITH BURT BACHARACH / Painted From Memory
--------------------------------------------------------------------------------

DR         Peak         RMS     Duration Track
--------------------------------------------------------------------------------
DR14      -6.96 dB   -25.04 dB      4:17 01-In The Darkest Place
DR13      -7.24 dB   -22.33 dB      4:33 02-Toledo
DR12      -7.23 dB   -23.72 dB      2:45 03-I Still Have That Other Girl
DR12      -7.58 dB   -22.81 dB      5:09 04-This House Is Empty Now
DR13      -6.51 dB   -22.00 dB      4:43 05-Tears At The Birthday Party
DR13      -7.11 dB   -22.37 dB      3:30 06-Such Unlikely Lovers
DR14      -5.77 dB   -25.70 dB      4:18 07-My Thief
DR12      -7.83 dB   -21.46 dB      4:16 08-The Long Division
DR13      -7.90 dB   -24.16 dB      4:17 09-Painted From Memory
DR13      -6.12 dB   -21.04 dB      4:08 10-The Sweetest Punch
DR13      -7.70 dB   -23.90 dB      4:06 11-What's Her Name Today?
DR13      -5.87 dB   -22.67 dB      6:11 12-God Give Me Strength
--------------------------------------------------------------------------------

Number of tracks:  12
Official DR value: DR13

Samplerate:        2822400 Hz / PCM Samplerate: 176400 Hz
Channels:          2
Bits per sample:   1
Bitrate:           5645 kbps
Codec:             DSD64
================================================================================




Create a new paste based on this one


Comments: