[ create a new paste ] login | about

Link: http://codepad.org/wC2UJ8K2    [ raw code | fork ]

Plain Text, pasted on Jul 2:
foobar2000 1.2.2 / Dynamic Range Meter 1.1.1
log date: 2013-06-19 14:57:24

--------------------------------------------------------------------------------
Analyzed: The Isley Brothers / 3+3 (2001 Remaster)
--------------------------------------------------------------------------------

DR         Peak         RMS     Duration Track
--------------------------------------------------------------------------------
DR11      -0.02 dB   -14.14 dB      5:30 01-That Lady (Part 1 & Part 2)
DR12      -0.05 dB   -16.17 dB      4:19 02-Don't Let Me Be Lonely Tonight
DR12      -0.16 dB   -15.82 dB      3:19 03-If You Were There
DR12      -0.08 dB   -15.07 dB      3:05 04-You Walk Your Way
DR11      -0.08 dB   -14.23 dB      4:05 05-Listen To The Music
DR11      -0.03 dB   -14.36 dB      4:01 06-What It Comes Down To
DR12      -0.04 dB   -15.12 dB      4:27 07-Sunshine (Go Away Today)
DR11      -0.01 dB   -14.62 dB      6:10 08-Summer Breeze
DR13      -0.08 dB   -17.08 dB      4:15 09-The Highways Of My Life
--------------------------------------------------------------------------------

Number of tracks:  9
Official DR value: DR12

Samplerate:        88200 Hz
Channels:          6
Bits per sample:   24
Bitrate:           6785 kbps
Codec:             FLAC
================================================================================




Create a new paste based on this one


Comments: